<?xml version="1.0" standalone="no"?>
<!DOCTYPE svg PUBLIC "-//W3C//DTD SVG 1.1//EN" "http://www.w3.org/Graphics/SVG/1.1/DTD/svg11.dtd">
<svg xmlns="http://www.w3.org/2000/svg">
<metadata>Generated by Fontastic.me</metadata>
<defs>
<font id="unicons" horiz-adv-x="512">
<font-face font-family="unicons" units-per-em="512" ascent="480" descent="-32"/>
<missing-glyph horiz-adv-x="512" />

<glyph glyph-name="activity" unicode="&#97;" d="M337 0l-154 401-85-188-98 0 0 47 73 0 115 252 153-401 73 149 98 0 0-47-73 0z"/>
<glyph glyph-name="address-book" unicode="&#98;" d="M427 512l-299 0c-28 0-51-18-60-43l-47 0 0-42 69 0 0 0 17 0 0 22c0 11 9 20 21 20l299 0c12 0 21-9 21-20l0-386c0-11-9-20-21-20l-299 0c-12 0-21 9-21 20l0 65-43 0 0 0-43 0 0-43 43 0 0-22c0-35 29-63 64-63l299 0c35 0 63 28 63 63l0 386c1 34-28 63-63 63z m-363-213l43 0 0 85-43 0 0-43-43 0 0-42 43 0z m0-128l43 0 0 85-43 0 0-43-43 0 0-42 43 0z m71-8l0-57 270 0 0 59c0 26-30 38-60 50-3 1-6 3-9 4 0 2 0 5 0 8 6 8 14 23 18 39 5 6 10 15 10 26 0 12 0 22 0 24-1 3-2 12-7 20l0 38c-2 16-14 44-47 52l-65 1-4-1c-34-8-45-36-47-54l0-36c-6-8-7-17-7-22 0 0 0-10 0-22 0-11 4-20 10-26 3-16 12-31 17-38 1-3 1-6 1-9-4-1-7-2-11-4-34-12-69-25-69-52z m83 12c23 9 35 13 38 27 2 8 1 25 1 34l0 7-5 6c-3 3-13 17-14 30l1 9-10 5c0 8 0 16 0 19l7 4 0 53c1 2 3 12 12 15l54 0c10-3 12-12 12-12l0-56 7-4c0-3 1-10 2-17l-9-5-1-11c-1-12-11-26-14-30l-5-6 0-7c-1-9-1-26 1-34 3-14 14-18 34-26 9-4 27-11 34-16l0-11-185 0 0 9c8 5 30 14 40 17z"/>
<glyph glyph-name="add-to-queue" unicode="&#99;" d="M384 256l-43 0 0-107-128 0 0-42 128 0 0-107 43 0 0 107 128 0 0 42-128 0z m-384 256l512 0 0-43-512 0z m0-128l512 0 0-43-512 0z m0-128l256 0 0-43-256 0z"/>
<glyph glyph-name="airplane-off" unicode="&#100;" d="M509 272c-1 2-3 3-4 5-2 1-3 2-5 3l-82 39-41 20-42 19-2 22-3 21-5 41c0 10-2 19-5 28-4 8-9 15-15 22-7 6-14 11-22 15-9 3-18 5-27 5-10 0-19-2-27-5-8-4-16-9-22-15-6-6-11-14-15-22-3-8-5-17-5-26l-4-44 0-9-1-9-46 48-47 47-60 0 129-131 32-32 47-47 46-47 20-21 20-20 64-64 63-64 58 0-65 66-65 66 14-1 14-2 41-4 41-4c2-1 3-1 5-1 1 1 3 1 4 1 2 1 3 1 4 2 2 1 3 2 4 3 1 1 2 2 3 3 1 1 2 3 2 4 1 1 1 3 1 4 1 1 1 3 1 4l0 69c0 2 0 4-1 6 0 2-1 4-2 5z m-40-56l-41 5-41 4-28 3-28 4-55 55-54 55 2 25 2 24 2 26 2 25c0 4 0 8 2 11 1 3 3 6 5 9 3 2 5 4 9 5 3 2 6 2 10 2 4 0 7 0 10-2 3-1 6-3 9-6 2-2 4-6 5-9 2-4 2-8 2-12l3-25 3-24 6-49c1-2 1-4 2-6 0-1 1-3 2-4 1-2 2-3 4-4 1-1 3-2 4-3l163-78z m-77-178l-18 14-18 15-36 29 1 13 0 13-20 21-21 21 0-7 0-7-3-64c0-1 0-3 1-5 0-1 0-3 1-4 1-2 2-3 3-5 1-1 2-2 3-3l17-13 8-7 8-6-126 0 9 6 8 6 8 7 9 6c1 1 2 3 4 4 1 1 1 2 2 4 1 2 2 3 2 5 0 2 0 3 0 5l-2 64-1 32-1 32 0 1-9 10-10 9c0 0-1 1-2 1-1 0-1 0-2 0l-41-4-41-4-41-4-41-4 0 31 41 18 42 18 12 5 12 5-32 33-22-9-83-37c-2-1-4-2-6-3-1-1-3-3-4-4-1-2-2-4-2-6-1-2-1-4-1-6l0-69c0-1 0-3 0-4 1-1 1-3 2-4 0-1 1-3 2-4 1-1 2-2 3-3 1-1 2-2 4-3 1-1 2-1 4-2 1 0 2 0 4-1 1 0 3 0 4 1l165 15 1-24 1-23 1-24 0-23-38-29-38-29c-2-1-3-3-4-4-1-2-2-4-3-6-1-2-1-5-1-7 0-2 0-4 1-6 1-3 2-5 3-6 1-2 3-4 5-5 1-1 3-2 5-3 3-1 5-1 7-1l250 0c3 0 5 0 7 1 2 1 4 2 6 3 2 1 3 3 4 4 2 2 3 4 4 6 0 2 1 4 1 7 0 2 0 4-1 6-1 2-2 4-3 6-1 2-2 3-4 5z"/>
<glyph glyph-name="airplane-on" unicode="&#101;" d="M500 280l-82 39-83 39-5 42-5 43c0 19-8 36-20 49-13 12-30 20-49 20-19 0-37-8-49-20-13-13-20-30-20-48l-3-44-4-44-167-73c-4-1-7-4-9-8-3-3-4-7-4-11l0-68c0-3 1-6 2-9 1-3 3-5 5-7 2-2 5-4 8-5 2-1 5-1 8-1l83 8 82 8 2-47 1-47-76-58c-3-2-6-6-7-10-2-5-2-9 0-13 1-5 4-8 8-11 3-3 8-4 12-4l250 0c5 0 9 1 13 4 3 2 6 6 8 10 1 5 1 9 0 13-1 4-4 8-7 11l-36 29-36 28 2 47 2 48 82-10 82-9c3 0 6 0 9 1 3 1 6 3 8 5 2 2 4 4 5 7 1 3 2 6 2 9l0 68c0 4-1 8-3 11-2 3-5 6-9 8z m-31-64l-81 9-82 9c-3 1-6 0-9 0-2-1-5-3-7-5-3-2-4-4-6-6-1-3-2-6-2-9l-2-64-3-64c0-3 1-6 2-9 1-3 3-6 6-8l16-13 17-13-126 0 17 12 17 13c3 2 5 5 6 8 2 3 2 7 2 10l-2 64-2 64c0 3-1 6-2 8-1 3-3 5-5 7-2 2-5 4-8 5-2 0-5 1-8 0l-82-7-82-8 0 31 166 72c4 1 7 4 9 7 2 3 4 7 4 11l7 103c0 7 3 14 8 18 5 5 12 8 19 8 7 0 14-3 19-8 4-5 7-12 7-21l12-98c1-4 2-7 4-10 2-3 5-5 8-7l82-39 81-39z"/>
<glyph glyph-name="airplay" unicode="&#102;" d="M0 469l0-341 85 0 0 43-42 0 0 256 426 0 0-256-42 0 0-43 85 0 0 341z m77-426l362 0-183 298z m72 42l107 171 107-171z"/>
<glyph glyph-name="alarm" unicode="&#103;" d="M256 452c-124 0-226-102-226-226 0-124 102-226 226-226 124 0 226 102 226 226 0 124-98 226-226 226z m0-409c-102 0-183 81-183 183 0 103 81 184 183 184 102 0 183-81 183-184 0-102-81-183-183-183z m21 332l-42 0 0-162 106-38 17 38-81 30z m-153 107l-30 30-94-94 30-30z m388-64l-94 94-30-30 94-94z"/>
<glyph glyph-name="alarm-check" unicode="&#104;" d="M256 452c-124 0-226-102-226-226 0-124 102-226 226-226 124 0 226 102 226 226 0 124-98 226-226 226z m0-409c-102 0-183 81-183 183 0 103 81 184 183 184 102 0 183-81 183-184 0-102-81-183-183-183z m-132 439l-30 30-94-94 30-30z m388-64l-94 94-30-30 94-94z m-273-222l-47 39-26-34 81-64 120 162-34 25z"/>
<glyph glyph-name="alarm-off" unicode="&#105;" d="M469 461l-51 51-30-30 22-21-39-39c-34 22-72 30-115 30-124 0-226-102-226-226 0-43 13-85 34-119l-55-56 55 0z m-396-235c0 103 81 184 183 184 30 0 60-9 81-22l-60-59 0 46-42 0 0-89-141-145c-13 25-21 55-21 85z m332 111c22-30 39-68 39-111-5-102-86-183-188-183-43 0-77 12-107 34l-25-26-5-4c39-30 86-47 137-47 124 0 226 102 226 226 4 56-17 103-47 141z m-64-162l17 38-55 22-34-34z m-340 240l93 94 31-30-94-94z m469-14l30 30 12-12-30-31z"/>
<glyph glyph-name="alarm-plus" unicode="&#106;" d="M256 452c-124 0-226-102-226-226 0-124 102-226 226-226 124 0 226 102 226 226 0 124-98 226-226 226z m0-409c-102 0-183 81-183 183 0 103 81 184 183 184 102 0 183-81 183-184 0-102-81-183-183-183z m-132 439l-30 30-94-94 30-30z m388-64l-94 94-30-30 94-94z m-162-171l-73 0 0 73-42 0 0-73-73 0 0-42 73 0 0-73 42 0 0 73 73 0z"/>
<glyph glyph-name="album" unicode="&#107;" d="M0 512l0-512 512 0 0 512z m469-469l-426 0 0 426 426 0z m-213 42c94 0 171 77 171 171 0 94-77 171-171 171-94 0-171-77-171-171 0-94 77-171 171-171z m0 299c73 0 128-55 128-128 0-73-55-128-128-128-73 0-128 55-128 128 0 73 55 128 128 128z m0-192c34 0 64 30 64 64 0 34-30 64-64 64-34 0-64-30-64-64 0-34 30-64 64-64z m0 85c13 0 21-8 21-21 0-13-8-21-21-21-13 0-21 8-21 21 0 13 8 21 21 21z"/>
<glyph glyph-name="align-bottom" unicode="&#109;" d="M256 128c4 0 13 0 17 4l137 137-30 30-103-98-4 311-43 0 5-311-98 98-30-30 136-137c4-4 9-4 13-4z m-256-85l512 0 0-43-512 0z"/>
<glyph glyph-name="align-left" unicode="&#110;" d="M128 256c0-4 0-13 4-17l137-137 30 30-98 103 311 4 0 43-311-5 98 98-30 30-137-136c-4-4-4-9-4-13z m-128 256l43 0 0-512-43 0z"/>
<glyph glyph-name="align-right" unicode="&#111;" d="M384 256c0 4 0 13-4 17l-137 137-30-30 98-98-311-9 0-43 311 5-98-98 30-30 137 136c4 4 4 9 4 13z m85 256l43 0 0-512-43 0z"/>
<glyph glyph-name="align-top" unicode="&#112;" d="M256 384c-4 0-13 0-17-4l-137-137 30-30 98 98 9-311 43 0-5 311 98-98 30 30-136 137c-4 4-9 4-13 4z m-256 128l512 0 0-43-512 0z"/>
<glyph glyph-name="anchor" unicode="&#113;" d="M489 172l-61 84-67-84 41 0c-8-66-60-118-125-127l0 255 43 0 0 43-43 0 0 47c24 9 41 32 41 59 0 35-28 63-63 63-35 0-63-28-63-63 0-27 18-50 42-59l0-47-43 0 0-43 43 0 0-255c-64 11-114 62-121 127l38 0-61 84-67-84 47 0c9-96 89-172 187-172 99 0 179 76 188 172z m-234 297c11 0 20-9 20-20 0-11-9-20-20-20-11 0-20 9-20 20 0 11 9 20 20 20z"/>
<glyph glyph-name="announcement" unicode="&#114;" d="M491 512c-13 0-22-9-22-21l0-17-426-145 0 4c0 13-9 21-22 21-12 0-21-8-21-21l0-154c0-8 9-17 21-17 13 0 22 9 22 21l0 9 85-30-9-34c-8-38 13-77 52-85 0 0 81-22 85-22 13 0 26 5 34 9 17 8 26 25 30 43l4 17 145-52 0-17c0-12 9-21 22-21 12 0 21 9 21 21l0 465c0 17-9 26-21 26z m-214-422c-4-13-12-30-34-22l-68 17c-13 5-21 22-17 34l8 30 116-38z m-234 145l0 47 426 145 0-337z"/>
<glyph glyph-name="aperture-s" unicode="&#115;" d="M428 240l41 0 0 42-42 0c-3 19-9 37-17 53-9 17-20 31-33 44-13 13-28 23-45 31-17 9-35 14-55 16l0 44-42 0 0-44c-20-2-38-8-55-16-17-8-33-18-46-31-13-13-24-28-32-44-9-16-15-34-17-53l-42 0 0-42 41 0c2-19 8-38 16-55 9-17 20-32 33-45 13-14 29-25 46-33 17-8 36-14 56-16l0-39 42 0 0 38c20 3 39 9 56 17 17 8 33 19 46 33 13 13 24 28 33 45 8 17 13 36 16 55z m-151-108l0 45-42 0 0-45c-14 3-28 7-40 13-12 6-23 15-32 24-10 9-18 20-24 32-6 12-10 25-12 39l44 0 0 42-43 0c2 13 7 26 13 37 6 11 14 22 24 31 9 9 20 16 31 22 12 6 25 10 39 12l0-39 42 0 0 39c14-2 26-6 38-12 12-6 22-13 32-22 9-9 17-19 23-31 7-11 11-24 14-37l-43 0 0-42 44 0c-2-14-6-27-12-39-7-12-15-23-24-32-9-10-20-18-33-24-12-6-25-10-39-13z m192 255l43 0 0 125-128 0 0-42 85 0z m0-262l0-83-85 0 0-42 128 0 0 125z m-426 345l85 0 0 42-128 0 0-125 43 0z m0-345l-43 0 0-125 128 0 0 42-85 0z"/>
<glyph glyph-name="archive" unicode="&#116;" d="M461 512l-410 0c-25 0-51-26-51-51l0-98c0-30 21-52 51-52l0-256c0-29 22-51 51-51l308 0c29 0 51 22 51 51l0 256c30 0 51 26 51 52l0 98c0 25-26 51-51 51z m-51-461l-308 0 0 256 308 0z m51 307l-410 0 0 103 410 0z m-282-153l154 0c13 0 25 13 25 25 0 13-12 26-25 26l-154 0c-13 0-25-13-25-26 0-12 12-25 25-25z"/>
<glyph glyph-name="arrow-bottom" unicode="&#117;" d="M58 189l183-183c2-2 4-4 7-5 3-1 5-1 8-1 3 0 5 0 8 1 2 1 5 3 7 5l46 46 45 46 46 45 46 46-7 8-8 7-14 15-37-37-36-36-37-37-36-36-1 110-1 109-1 110-1 110-11 0-10 0-21 0 1-111 1-111 1-110 1-111-37 38-113 112-7-8-7-7-8-8z"/>
<glyph glyph-name="arrow-bottom-o" unicode="&#118;" d="M231 222l-47 39-47 40-33-39 77-65 77-64 75 73 75 73-18 18-18 18-45-44-45-44 0 285-51 0z m238 34c0-59-24-112-62-151-39-38-92-62-151-62-59 0-112 24-151 62-38 39-62 92-62 151 0 42 12 80 32 113 21 33 50 60 85 77l0 47c-47-19-87-51-115-92-28-42-45-91-45-145 0-71 29-135 75-181 46-46 110-75 181-75 71 0 135 29 181 75 46 46 75 110 75 181 0 54-17 103-45 145-28 41-68 73-115 92l0-47c35-17 64-44 85-77 20-33 32-71 32-113z"/>
<glyph glyph-name="arrow-left" unicode="&#119;" d="M189 454l-183-183c-2-2-4-4-5-7-1-3-1-5-1-8 0-3 0-5 1-8 1-2 3-5 5-7l46-46 46-45 45-46 46-46 8 7 7 8 15 14-37 37-36 36-37 37-36 36 110 1 109 1 110 1 110 1 0 11 0 10 0 21-111-1-111-1-110-1-111-1 38 37 112 113-8 7-7 7-8 8z"/>
<glyph glyph-name="arrow-left-bottom" unicode="&#120;" d="M0 21l0 261 43 0 0-205 439 435 30-30-435-439 213 0 0-43-264 0c-13 0-26 9-26 21z"/>
<glyph glyph-name="arrow-left-o" unicode="&#121;" d="M222 281l39 47 40 47-39 33-65-77-64-77 73-75 73-75 18 18 18 18-44 45-44 45 285 0 0 51z m34-238c-59 0-112 24-151 62-38 39-62 92-62 151 0 59 24 112 62 151 39 38 92 62 151 62 42 0 80-12 113-32 33-21 60-50 77-85l47 0c-19 47-51 87-92 115-42 28-91 45-145 45-71 0-135-29-181-75-46-46-75-110-75-181 0-71 29-135 75-181 46-46 110-75 181-75 54 0 103 17 145 45 41 28 73 68 92 115l-47 0c-17-35-44-64-77-85-33-20-71-32-113-32z"/>
<glyph glyph-name="arrow-left-top" unicode="&#122;" d="M21 512l261 0 0-43-205 0 435-439-30-30-439 435 0-213-43 0 0 264c0 13 9 26 21 26z"/>
<glyph glyph-name="arrow-right" unicode="&#65;" d="M323 454l183-183c2-2 4-4 5-7 1-3 1-5 1-8 0-3 0-5-1-8-1-2-3-5-5-7l-46-46-46-45-45-46-46-46-8 7-7 8-15 14 37 37 36 36 37 37 36 36-110 1-109 1-110 1-110 1 0 11 0 10 0 21 111-1 111-1 110-1 111-1-38 37-112 113 8 7 7 7 8 8z"/>
<glyph glyph-name="arrow-right-bottom" unicode="&#66;" d="M491 0l-261 0 0 43 205 0-435 439 30 30 439-435 0 213 43 0 0-264c0-13-9-26-21-26z"/>
<glyph glyph-name="arrow-right-o" unicode="&#67;" d="M290 231l-39-47-40-47 39-33 65 77 64 77-73 75-73 75-18-18-18-18 44-45 44-45-285 0 0-51z m-34 238c59 0 112-24 151-62 38-39 62-92 62-151 0-59-24-112-62-151-39-38-92-62-151-62-42 0-80 12-113 32-33 21-60 50-77 85l-47 0c19-47 51-87 92-115 42-28 91-45 145-45 71 0 135 29 181 75 46 46 75 110 75 181 0 71-29 135-75 181-46 46-110 75-181 75-54 0-103-17-145-45-41-28-73-68-92-115l47 0c17 35 44 64 77 85 33 20 71 32 113 32z"/>
<glyph glyph-name="arrow-right-top" unicode="&#68;" d="M491 512l-261 0 0-43 205 0-435-439 30-30 439 435 0-213 43 0 0 264c0 13-9 26-21 26z"/>
<glyph glyph-name="arrow-top" unicode="&#69;" d="M454 323l-183 183c-2 2-4 4-7 5-3 1-5 1-8 1-3 0-5 0-8-1-2-1-5-3-7-5l-46-46-45-46-46-45-46-46 7-8 8-7 14-15 37 37 36 36 37 37 36 36 1-110 1-109 1-110 1-110 11 0 10 0 21 0-1 111-1 111-1 110-1 111 37-38 113-112 7 8 7 7 8 8z"/>
<glyph glyph-name="arrow-top-o" unicode="&#70;" d="M281 290l47-39 47-40 33 39-77 65-77 64-75-73-75-73 18-18 18-18 45 44 45 44 0-285 51 0z m-238-34c0 59 24 112 62 151 39 38 92 62 151 62 59 0 112-24 151-62 38-39 62-92 62-151 0-42-12-80-32-113-21-33-50-60-85-77l0-47c47 19 87 51 115 92 28 42 45 91 45 145 0 71-29 135-75 181-46 46-110 75-181 75-71 0-135-29-181-75-46-46-75-110-75-181 0-54 17-103 45-145 28-41 68-73 115-92l0 47c-35 17-64 44-85 77-20 33-32 71-32 113z"/>
<glyph glyph-name="arrow-key-left" unicode="&#71;" d="M512 21l0 470c0 12-9 21-21 21l-470 0c-12 0-21-9-21-21l0-470c0-12 9-21 21-21l470 0c12 0 21 9 21 21z m-469 22l0 426 426 0 0-426z m42 213c0-4 0-13 5-17l119-120 30 30-81 86 269 4 0 43-269-5 81 81-30 30-119-115c-5-4-5-13-5-17z"/>
<glyph glyph-name="arrow-key-bottom" unicode="&#72;" d="M491 512l-470 0c-12 0-21-9-21-21l0-470c0-12 9-21 21-21l470 0c12 0 21 9 21 21l0 470c0 12-9 21-21 21z m-22-469l-426 0 0 426 426 0z m-213 42c4 0 13 0 17 5l120 119-35 30-81-81-4 269-43 0 5-265-81 77-30-30 119-119c4-5 9-5 13-5z"/>
<glyph glyph-name="arrow-key-right" unicode="&#73;" d="M0 491l0-470c0-12 9-21 21-21l470 0c12 0 21 9 21 21l0 470c0 12-9 21-21 21l-470 0c-12 0-21-9-21-21z m469-22l0-426-426 0 0 426z m-42-213c0 4 0 13-5 17l-119 115-30-30 81-81-269-4 0-43 265 5-77-81 30-30 119 119c6 6 5 9 5 13z"/>
<glyph glyph-name="arrow-key-top" unicode="&#74;" d="M21 0l470 0c12 0 21 9 21 21l0 470c0 12-9 21-21 21l-470 0c-12 0-21-9-21-21l0-470c0-12 9-21 21-21z m22 469l426 0 0-426-426 0z m213-42c-4 0-13 0-17-5l-115-119 30-30 81 81 4-269 43 0-5 269 81-81 30 30-115 119c-4 5-13 5-17 5z"/>
<glyph glyph-name="asterisk" unicode="&#75;" d="M512 277l-205 0 145 145-30 30-145-145 0 205-42 0 0-205-145 145-30-30 145-145-205 0 0-42 205 0-145-145 30-30 145 145 0-205 42 0 0 205 145-145 30 30-145 145 205 0z"/>
<glyph glyph-name="at" unicode="&#76;" d="M256 512c-141 0-256-115-256-256 0-141 115-256 256-256l0 43c-119 0-213 94-213 213 0 119 94 213 213 213 119 0 213-94 213-213 0-4 0-21-4-34-4-26-21-51-47-47-13 0-25 8-34 17-9 9-13 17-13 30 4 13 9 21 9 34 0 68-56 128-128 128-69 0-128-55-128-128 0-68 55-128 128-128 38 0 72 17 94 43 0-5 4-5 8-9 17-17 39-30 60-30 47-4 85 30 94 81 4 17 4 43 4 43 0 141-115 256-256 256z m-4-341c-47 0-86 38-86 85 0 47 39 85 86 85 47 0 85-38 85-85 0-9 0-21-4-30-13-30-47-55-81-55z"/>
<glyph glyph-name="attach" unicode="&#77;" d="M174 464l-50-50-49-50 32-31 49 49 50 50c24 24 56 36 90 35 34-1 68-15 95-42 27-27 41-61 43-96 1-34-9-68-30-96l-26-25-25-26-5-5-5-4-54-55-54-54c-18-18-40-26-63-25-22 1-45 11-62 28-18 18-27 41-27 64 0 22 8 45 24 61l20 21 21 20 58 58 57 57c7 7 16 10 26 10 9 0 19-3 25-10 7-6 11-15 11-24 1-9-3-19-11-27l-156-156 32-32 156 156c16 16 24 37 24 58 0 21-8 42-24 58-16 16-37 24-58 24-21 1-42-7-58-23l-58-58-57-57-21-21-21-21c-25-25-38-59-39-92 0-33 12-66 37-91 28-28 62-41 96-42 33-1 66 11 90 35l112 112 5 5 4 5 26 25 26 26c33 33 49 78 48 123-1 45-20 91-55 126-35 35-81 54-126 55-45 1-90-15-123-48z"/>
<glyph glyph-name="backspace" unicode="&#78;" d="M491 427l-286 0c-4 0-9 0-13-5l-183-149c-5-4-9-8-9-17 0-9 4-13 9-17l183-149c4-5 9-5 13-5l286 0c12 0 21 9 21 22l0 298c0 13-9 22-21 22z m-22-299l-256 0-158 128 158 128 256 0z m-196 51l47 47 43-47 30 30-43 47 43 47-30 30-43-47-47 47-30-30 47-47-47-47z"/>
<glyph glyph-name="backup" unicode="&#79;" d="M491 422c0 60-124 90-235 90-111 0-235-30-235-94 0 0 0 0 0-4l0-324c5-60 124-90 235-90 111 0 226 26 235 94l0 320c0 4 0 4 0 8z m-43 0c0-12-68-47-192-47-124 0-188 35-192 52 0 8 68 42 192 42 124 0 192-34 192-47m-384-166c47-26 124-34 192-34 68 0 145 13 188 38l0-59c0-13-69-47-188-47-124 0-188 34-192 51 0 0 0 51 0 51z m192 9c-124 0-188 34-188 46l0 52c43-22 120-34 188-34 68 0 145 12 192 38l0-51c-4-17-68-51-192-51z m0-222c-124 0-188 34-192 51l0 51c47-26 124-38 192-38 68 0 145 12 188 38l0-51c0-17-64-51-188-51z"/>
<glyph glyph-name="badge" unicode="&#80;" d="M375 294l52 60 0 158-342 0 0-158 56-60c-34-29-56-72-56-123 0-94 77-171 171-171 94 0 171 77 171 171 0 51-22 94-52 123z m-247 77l0 98 256 0 0-98-43-51c-25 13-55 21-85 21-30 0-60-8-85-21z m128-328c-73 0-128 59-128 128 0 68 60 128 128 128 68 0 128-60 128-128 0-69-55-128-128-128z"/>
<glyph glyph-name="bag-cross" unicode="&#81;" d="M354 384l0 26c0 55-47 102-102 102-56 0-98-47-98-102l0-26-111 0 0-384 426 0 0 384z m-158 26c0 34 26 59 56 59 30 0 59-25 59-59l0-26-115 0z m231-367l-342 0 0 298 69 0 0-42 42 0 0 42 115 0 0-42 43 0 0 42 73 0z m-94 175l-30 29-47-46-47 46-30-29 47-47-47-47 30-30 47 47 47-47 30 34-47 43z"/>
<glyph glyph-name="bag-minus" unicode="&#82;" d="M354 384l0 26c0 55-47 102-102 102-56 0-98-47-98-102l0-26-111 0 0-384 426 0 0 384z m-158 26c0 34 26 59 56 59 30 0 59-25 59-59l0-26-115 0z m231-367l-342 0 0 298 69 0 0-42 42 0 0 42 115 0 0-42 43 0 0 42 73 0z m-256 149l170 0 0-43-170 0z"/>
<glyph glyph-name="bag-plus" unicode="&#83;" d="M354 384l0 26c0 55-47 102-102 102-56 0-98-47-98-102l0-26-111 0 0-384 426 0 0 384z m-158 26c0 34 26 59 56 59 30 0 59-25 59-59l0-26-115 0z m231-367l-342 0 0 298 69 0 0-42 42 0 0 42 115 0 0-42 43 0 0 42 73 0z m-150 213l-42 0 0-64-64 0 0-43 64 0 0-64 42 0 0 64 64 0 0 43-64 0z"/>
<glyph glyph-name="bar-chart" unicode="&#84;" d="M0 0l128 0 0 256-128 0z m43 213l42 0 0-170-42 0z m149-213l128 0 0 384-128 0z m43 341l42 0 0-298-42 0z m149 171l0-512 128 0 0 512z m85-469l-42 0 0 426 42 0z"/>
<glyph glyph-name="basket" unicode="&#85;" d="M469 384l-136 128-26-34 103-94-303 0 102 94-30 34-136-124-43 0 0-128 43 0 21-260 380 0 25 256 43 0 0 128z m0-81l-42 0-22-260-298 0-22 260-42 0 0 43 426 0z"/>
<glyph glyph-name="battery-off" unicode="&#86;" d="M43 171l0 170 61 0-29 43-75 0 0-256 250 0-30 43z m426 123l43 0 0-85-43 0z m-364 196l-35-24 0-1 55-81 29-43 117-170 29-43 56-82 1 1 34 23-39 58 75 0 0 256-250 0z m279-149l0-170-61 0-116 170z"/>
<glyph glyph-name="battery-on" unicode="&#87;" d="M0 128l427 0 0 256-427 0z m43 213l341 0 0-170-341 0z m42-42l43 0 0-86-43 0z m86 0l42 0 0-86-42 0z m298-5l43 0 0-85-43 0z"/>
<glyph glyph-name="battery-charge" unicode="&#88;" d="M43 171l0 170 136 0 43 43-222 0 0-256 85 0 43 43z m345 264l-30 30-200-200 89-30-59-64-94-94 30-30 81 81 222 0 0 256-90 0z m-4-94l0-170-137 0 82 81-94 30 59 59z m85-47l43 0 0-85-43 0z"/>
<glyph glyph-name="bell-on" unicode="&#89;" d="M213 43l90 0 0-43-90 0z m214 85l0 213c0 94-77 171-171 171-94 0-171-77-171-171l0-213-42 0 0-43 426 0 0 43z m-299 0l0 213c0 73 55 128 128 128 68 0 128-55 128-128l0-213z"/>
<glyph glyph-name="bell-off" unicode="&#90;" d="M213 43l90 0 0-43-90 0z m-85 85l0 183-43 43c0-4 0-8 0-13l0-213-42 0 0-43 311 0-43 43z m299 0l0 213c0 47-22 90-52 120-29 34-72 51-119 51-55 0-107-26-137-68l-29 25-60 0 102-102 235-239 43-43 59 0 0 43z m-278 282c22 38 64 59 107 59 68 0 128-55 128-128l0-170z"/>
<glyph glyph-name="bike" unicode="&#48;" d="M375 469l137 0 0 43-154 0c-8-4-29-17-42-73-13 18-34 30-56 30-25 0-47-12-59-34-13 56-35 73-43 77l-158 0 0-43 141 0c4-4 7-11 17-47 4-21 13-34 21-47-51-4-94-46-94-102 0-47 30-85 77-102l-34 0 0-43 51 0 0-51c0-43 34-77 77-77 43 0 73 34 73 77l0 51 55 0 0 43-26 0c43 12 77 51 77 102 0 56-42 98-94 107 9 13 17 25 22 47 4 29 8 38 12 42z m-115-42c13 0 22-9 22-22 0-12-9-21-22-21-11 0-21 9-21 21 0 13 7 22 21 22z m26-350c0-22-13-34-30-34-17 0-30 12-30 34l0 145c-4 21 13 34 30 34 17 0 30-13 30-34z m102 196c0-34-25-60-59-64l0 13c0 43-35 77-73 77-38 0-77-34-77-77l0-13c-30 4-51 30-51 64 0 34 30 64 64 64l137 0c29-4 59-30 59-64z"/>
<glyph glyph-name="binocular" unicode="&#49;" d="M495 252l-115 145c-13 17-30 25-51 25-35 0-60-25-60-59l13-60c-9-4-17-4-26-4-9 0-13 0-21 4l12 55 0 5c0 34-25 59-59 59-22 0-39-8-51-25l-120-145c-8-17-17-39-17-60 0-60 47-107 107-107 38 0 76 22 94 56 12 25 34 38 55 38 26 0 47-13 55-34 18-34 52-55 94-55 60 0 107 47 107 106 0 17-9 39-17 56z m-324-73c-9-30-34-51-64-51-39 0-69 30-69 64 0 38 30 64 64 64 39 4 69-26 69-64 0-4 0-9 0-13z m12 81c-21 22-46 34-76 39l64 76c8 13 34 9 34-8z m73-38c-13 0-30-4-43-9l9 47c13-4 25-4 34-4 9 0 21 0 30 4l13-47c-13 5-26 9-43 9z m51 145c4 13 26 21 39 4l59-72c-30 0-55-13-72-34z m98-239c-34 0-64 30-64 64 0 38 30 64 64 64 39 0 64-30 64-64 5-34-25-64-64-64z"/>
<glyph glyph-name="block" unicode="&#50;" d="M256 512c-141 0-256-115-256-256 0-141 115-256 256-256 141 0 256 115 256 256 0 141-115 256-256 256z m213-256c0-51-17-98-47-132l-298 298c34 30 81 47 132 47 119 0 213-94 213-213z m-426 0c0 51 17 98 47 132l298-298c-34-30-81-47-132-47-119 0-213 94-213 213z"/>
<glyph glyph-name="bluetooth" unicode="&#51;" d="M410 388l-209 124 0-213-73 59-26-34 86-68-86-68 26-34 73 59 0-213 209 124-158 132z m-167 47l94-55-94-77z m94-303l-94-55 0 132z"/>
<glyph glyph-name="bolt" unicode="&#52;" d="M409 316l-80 0 49 82 49 82c2 3 3 7 3 10 0 4-1 8-3 11-2 4-4 6-7 8-4 2-7 3-11 3l-159 0c-4 0-8-1-11-3-3-2-6-4-8-8l-146-254c-2-3-3-7-3-11 0-3 1-7 3-10 2-4 4-6 8-8 3-2 6-3 10-3l74 0-27-94-27-94c-1-5-1-9 1-14 1-4 4-8 9-10 1-1 3-2 5-2 2-1 4-1 5-1 3 0 6 0 9 2 2 1 5 2 7 4l132 137 133 137c3 3 5 7 6 11 1 4 0 8-2 12-1 4-4 8-7 10-4 2-8 3-12 3z m-221-218l19 66 19 67c1 3 1 6 1 9-1 4-2 7-4 9-2 3-5 5-8 7-3 1-6 2-9 2l-66 0 61 106 61 105 109 0-49-81-49-82c-2-3-3-7-3-11 0-3 1-7 3-11 2-3 4-6 8-7 3-2 7-3 10-3l67 0-85-88z"/>
<glyph glyph-name="bomb" unicode="&#53;" d="M388 427l-68-69-34 39-73-73c-59 17-119 0-166-42-64-64-64-171 0-235 34-30 77-47 119-47 43 0 86 17 120 47 51 51 64 124 34 188l60 64-30 30 68 68z m-123-184l8-13c30-51 21-111-17-153-47-47-128-47-175 0-26 25-38 55-38 89 0 35 12 64 34 86 25 25 55 38 89 38 17 0 30-4 43-8l13-5 60 60 38-38z m165 111l30 30 48-48-30-30z m-128 130l31 30 48-48-30-30z m128-24l48 48 30-30-48-48z"/>
<glyph glyph-name="book-close" unicode="&#54;" d="M158 512c-64 0-115-51-115-115l0-303c0-4 0-4 0-9 0-47 38-85 85-85l341 0 0 43-341 0c-26 0-43 17-43 42 0 26 17 43 43 43l341 0 0 384z m-30-341c-17 0-30-5-43-13l0 239c0 42 34 72 73 72l269 0 0-298z"/>
<glyph glyph-name="bookmark" unicode="&#55;" d="M85 512l0-512 171 141 171-141 0 512z m299-422l-128 106-128-106 0 379 256 0z"/>
<glyph glyph-name="book-open" unicode="&#56;" d="M311 512c-25 0-42-4-55-13-13 9-30 13-55 13l-201 0 0-469 175 0c4 0 60 0 60-43l42 0c0 43 56 43 60 43l175 0 0 469z m-76-439c-22 8-43 12-60 12l-132 0 0 384 158 0c34 0 34-4 34-17z m234 12l-132 0c-17 0-38-4-60-12l0 384c0 8 0 17 34 17l158 0z"/>
<glyph glyph-name="bookmark-cross" unicode="&#57;" d="M85 512l0-512 171 141 171-141 0 512z m299-422l-128 106-128-106 0 379 256 0z m-205 204l30-29 47 46 47-46 30 29-47 47 47 43-30 34-47-47-47 47-30-34 47-43z"/>
<glyph glyph-name="bookmark-minus" unicode="&#33;" d="M85 512l0-512 171 141 171-141 0 512z m299-422l-128 106-128-106 0 379 256 0z m-107 230l64 0 0 43-170 0 0-43z"/>
<glyph glyph-name="bookmark-plus" unicode="&#34;" d="M85 512l0-512 171 141 171-141 0 512z m299-422l-128 106-128-106 0 379 256 0z m-149 166l42 0 0 64 64 0 0 43-64 0 0 64-42 0 0-64-64 0 0-43 64 0z"/>
<glyph glyph-name="bookmark-bk" unicode="&#35;" d="M158 512c-64 0-115-51-115-115l0-303c0-4 0-4 0-9 0-47 38-85 85-85l341 0 0 43-341 0c-26 0-43 17-43 42 0 26 17 43 43 43l341 0 0 384z m141-43l0-162-43 34-43-34 0 162z m-171-298c-17 0-30-5-43-13l0 239c0 42 34 72 73 72l13 0 0-256 85 73 85-73 0 256 86 0 0-298z"/>
<glyph glyph-name="box-open" unicode="&#36;" d="M512 213l-303 239-81-102 102-81-230 0 0-269 384 0 0 149 47-38z m-299 13l0-183-42 0 0 183z m-170 0l85 0 0-183-85 0z m298-183l-85 0 0 183 30 0 55-43z m-153 311l25 34 235-183-21-34z m-145 81l8 26 30 13-30 8-8 30-9-30-30-8 30-13z m17-51l17-9 8-17 5 17 21 9-21 4-5 22-8-22z m89 51l5 13 12 4-12 5-5 12-4-12-13-5 13-4z"/>
<glyph glyph-name="briefcase" unicode="&#37;" d="M439 384l-55 0 0 68c0 34-26 60-60 60l-136 0c-34 0-60-26-60-60l0-68-55 0c-39 0-73-34-73-73l0-238c0-39 34-73 73-73l366 0c39 0 73 34 73 73l0 238c0 39-34 73-73 73z m-268 68c0 9 8 17 17 17l136 0c9 0 17-8 17-17l0-68-170 0z m-98-111l366 0c18 0 30-12 30-30l0-55-170 0 0 43-86 0 0-43-170 0 0 55c0 18 12 30 30 30z m366-298l-366 0c-18 0-30 12-30 30l0 140 170 0 0-42 86 0 0 42 170 0 0-140c0-18-12-30-30-30z"/>
<glyph glyph-name="brightness" unicode="&#38;" d="M256 405c-81 0-149-68-149-149 0-81 68-149 149-149 81 0 149 68 149 149 0 81-68 149-149 149z m0-256c-60 0-107 47-107 107 0 60 47 107 107 107 60 0 107-47 107-107 0-60-47-107-107-107z m-21-98l42 0 0-51-42 0z m0 461l42 0 0-51-42 0z m-235-235l51 0 0-42-51 0z m461 0l51 0 0-42-51 0z m-400 144l31 30 36-36-30-30z m323-324l30 30 37-36-31-30z m-323-5l36 36 30-30-36-37z m324 322l36 37 30-31-36-36z"/>
<glyph glyph-name="brightness-half" unicode="&#39;" d="M362 362c-14 13-30 24-48 32-18 7-37 11-58 11-21 0-40-4-58-11-18-8-34-19-48-32-13-14-24-30-32-48-7-18-11-37-11-58 0-20 4-40 11-58 8-18 19-34 32-47 14-14 30-25 48-32 18-8 37-12 58-12 21 0 40 4 58 12 18 7 34 18 48 32 13 13 24 29 32 47 7 18 11 38 11 58 0 21-4 40-11 58-8 18-19 34-32 48z m-31-181c-9-10-21-18-34-23-12-6-26-9-41-9l0 214c15 0 29-3 41-9 13-5 25-13 34-22 10-10 18-22 23-34 6-13 9-27 9-42 0-15-3-29-9-41-5-13-13-25-23-34z m-96-130l0-51 42 0 0 51z m42 410l0 51-42 0 0-51z m-277-184l0-42 51 0 0 42z m486 0l-25 0 0-42 51 0 0 42z m-390 109l8 7 7 8 8 7 7 8-9 9-27 27-30-30z m320-260l-8-7-7-8-8-7-7-8 9-9 9-9 9-9 9-9 30 30-9 9-9 9-9 9z m-320 0l-36-36 7-7 8-8 8-8 7-7 9 9 9 9 9 9 9 9-7 8-8 7-7 8z m326 326l-9-9-9-9-18-18 7-8 8-7 7-8 8-7 9 9 9 9 9 9 9 9-7 7-8 8-8 8z"/>
<glyph glyph-name="brightness-minus" unicode="&#40;" d="M256 405c-41 0-78-16-106-43-27-27-43-65-43-106 0-41 16-78 43-105 28-27 65-44 106-44 41 0 79 17 106 44 27 27 43 64 43 105 0 41-16 79-43 106-27 27-65 43-106 43z m0-256c-29 0-56 12-75 32-20 19-32 46-32 75 0 30 12 56 32 76 19 19 46 31 75 31 29 0 56-12 75-31 20-20 32-46 32-76 0-29-12-56-32-75-19-20-46-32-75-32z m-21-149l42 0 0 51-42 0z m42 512l-42 0 0-51 42 0z m-277-277l51 0 0 42-51 0z m461 42l0-42 51 0 0 42z m-335 139l-18 18-18 18-15-15-15-15 36-36 15 15z m260-320l18-18 18-18 30 30-18 18-18 18-15-15z m-326-6l15-15 15-15 18 18 18 18-15 15-15 15z m326 326l15-15 15-15 18 18 18 18-15 15-15 15z m-151-139l-43 0 0-42 128 0 0 42z"/>
<glyph glyph-name="brightness-plus" unicode="&#41;" d="M256 405c-41 0-78-16-106-43-27-27-43-65-43-106 0-41 16-78 43-105 28-27 65-44 106-44 41 0 79 17 106 44 27 27 43 64 43 105 0 41-16 79-43 106-27 27-65 43-106 43z m0-256c-29 0-56 12-75 32-20 19-32 46-32 75 0 30 12 56 32 76 19 19 46 31 75 31 29 0 56-12 75-31 20-20 32-46 32-76 0-29-12-56-32-75-19-20-46-32-75-32z m-21-149l42 0 0 51-42 0z m42 512l-42 0 0-51 42 0z m-277-277l51 0 0 42-51 0z m461 42l0-42 51 0 0 42z m-335 139l-18 18-18 18-15-15-15-15 36-36 15 15z m260-320l18-18 18-18 30 30-18 18-18 18-15-15z m-326-6l15-15 15-15 18 18 18 18-15 15-15 15z m326 326l15-15 15-15 18 18 18 18-15 15-15 15z m-109-96l-42 0 0-43-43 0 0-42 43 0 0-43 42 0 0 43 43 0 0 42-43 0z"/>
<glyph glyph-name="browser" unicode="&#42;" d="M256 512c-141 0-256-115-256-256 0-141 115-256 256-256 141 0 256 115 256 256 0 141-115 256-256 256z m209-235l-81 0c-4 73-21 133-43 175 69-30 120-98 124-175z m-209-234c-38 0-81 81-85 192l170 0c-4-111-47-192-85-192z m-85 234c4 111 47 192 85 192 38 0 81-81 85-192z m0 175c-26-42-43-102-43-175l-85 0c8 77 59 145 128 175z m-124-217l85 0c5-73 17-133 43-175-73 30-124 98-128 175z m294-175c26 42 43 102 43 175l85 0c-8-77-59-145-128-175z"/>
<glyph glyph-name="browser-s" unicode="&#43;" d="M0 512l0-512 512 0 0 512z m469-43l0-42-426 0 0 42z m-426-426l0 341 426 0 0-341z m128 250l256 0 0-43-256 0z m0-122l256 0 0-43-256 0z m-86 0l43 0 0-43-43 0z m0 122l43 0 0-43-43 0z"/>
<glyph glyph-name="bug" unicode="&#44;" d="M422 201l90 0 0 42-90 0 0 90 64 60-25 34-43-39-47 0c0 64-51 111-115 111-64 0-111-47-115-111l-30 0-47 47-30-30 56-59 0-107-90 0 0-43 90 0 0-4c0-30 8-60 25-85l-68-64 30-30 68 64c26-22 60-34 90-34l34 0c30 0 60 8 81 25l60-64 29 30-51 68c22 26 34 60 34 99z m-166 256c38 0 73-30 73-69l-146 0c5 39 35 69 73 69z m-17-367c-30 0-56 12-77 34-17 17-30 47-30 72l0 150 248 0 0-150c0-30-13-59-34-81-22-17-47-25-73-25z"/>
<glyph glyph-name="bug-o" unicode="&#45;" d="M512 181l0 44-69 0c0 0 0 1 0 1 0 0 0 0 0 0 0 0 0 1 0 1 0 0 0 0 0 0 0 8 0 16-1 24-1 8-3 15-5 23-2 7-4 15-7 22-3 7-6 14-10 21l15 16 15 15 31 31-15 16-8 7-8 8-27-28-14-14-14-14c0 0-1 1-1 1-1 1-1 2-2 2 0 1-1 2-1 2-1 1-1 1-2 2-2 2-4 5-7 7-2 2-4 4-7 6-2 2-5 4-8 6-2 2-5 3-7 5 0 1 0 2 0 4 0 1 0 3 0 5 0 2 0 5 0 7 0 3 0 5 0 8 0 14-3 28-8 40-5 12-13 23-22 33-9 9-20 17-32 22-12 5-25 8-39 8-14 0-27-3-39-8-12-5-23-13-32-23-9-9-17-21-22-34-5-13-8-27-8-42 0-1 0-3 0-5 0-2 0-4 0-6 0-2 0-4 0-5 0-2 0-3 0-4-2-1-5-3-7-5-3-2-5-4-8-6-2-2-5-4-7-6-3-2-5-5-7-7-1 0-1-1-1-1-1 0-1-1-1-1 0 0-1-1-1-1 0-1 0-1-1-1l-13 13-13 13-13 14-13 13-7-8-8-7-15-16 57-58c-4-7-8-14-11-22-3-7-6-15-8-23-2-8-4-16-5-24-1-8-1-16-1-25 0 0 0 0 0 0 0 0 0-1 0-1 0 0 0 0 0 0 0 0 0-1 0-1l-75 0 0-44 81 0c1-7 4-14 6-21 3-7 6-14 9-21 4-7 8-13 12-19 4-6 9-12 14-18l-35-36-17-17-17-18 7-8 8-7 8-8 7-8 18 18 17 18 36 36c7-5 15-10 24-14 8-5 17-8 25-11 9-3 18-5 28-7 9-1 18-2 28-2 10 0 19 1 28 2 10 2 19 4 28 7 8 3 17 6 25 11 9 4 17 9 24 14l36-36 17-18 18-18 7 8 8 8 8 7 7 8-17 18-52 53c5 6 10 12 14 18 4 6 8 12 12 19 3 7 6 14 9 21 2 7 5 14 6 21l56 0c0 0 19 0 19 0z m-253 287c8 0 15-2 22-5 7-2 13-7 18-12 6-6 10-12 13-20 3-7 5-16 5-25-10 4-19 6-29 7-9 2-19 3-29 3-10 0-20-1-29-3-10-1-20-4-29-7 0 1 0 1 0 1 0 0 0 0 0 1 0 0 0 0 0 0 0 0 0 0 0 1 0 8 2 16 5 23 3 7 7 13 12 19 5 5 12 9 19 12 6 3 14 5 22 5z m100-344c-13-13-29-24-46-31-17-6-36-10-54-10-18 0-37 4-54 10-17 7-33 18-46 31-7 7-13 15-18 22-5 8-9 17-13 25-3 9-6 18-8 28-2 9-3 18-3 28 0 10 1 19 3 29 2 9 5 18 8 27 4 9 8 17 13 25 5 8 11 15 18 22 2 2 5 5 7 7 3 2 5 4 8 6 3 3 5 4 8 6 3 2 6 4 9 6 5 2 10 5 16 7 5 3 11 4 17 6 5 2 11 3 17 3 6 1 12 2 18 2 6 0 12-1 18-2 6 0 12-1 17-3 6-2 12-3 17-6 6-2 11-5 16-7 3-2 6-4 9-6 3-2 5-4 8-6 3-2 5-4 8-6 2-2 5-5 7-7 7-7 13-14 18-22 5-8 9-16 13-25 3-9 6-18 8-27 2-10 3-19 3-29 0-10-1-19-3-28-2-10-5-19-8-28-4-8-8-17-13-25-5-7-11-15-18-22z m-39 155c-6 0-11-1-16-3-6-3-10-6-14-10-4-4-7-8-9-14-2-5-4-11-4-17 0-6 2-12 4-17 2-5 5-10 9-14 4-4 8-7 14-9 5-3 10-4 16-4 6 0 12 1 17 4 5 2 10 5 14 9 3 4 7 9 9 14 2 5 3 11 3 17 0 6-1 12-3 17-2 6-6 10-9 14-4 4-9 7-14 10-5 2-11 3-17 3z m-119 0c-6 0-11-1-17-3-5-3-9-6-13-10-4-4-7-8-9-14-3-5-4-11-4-17 0-6 1-12 4-17 2-5 5-10 9-14 4-4 8-7 13-9 6-3 11-4 17-4 6 0 12 1 17 4 5 2 10 5 13 9 4 4 7 9 10 14 2 5 3 11 3 17 0 6-1 12-3 17-3 6-6 10-10 14-3 4-8 7-13 10-5 2-11 3-17 3z"/>
<glyph glyph-name="build" unicode="&#46;" d="M494 119l-180 170 61 60c3-2 7-3 10-4 4 0 8-1 11-1 7 0 14 2 21 4 6 3 13 7 18 12l35 35 35 35-41 41-41 40-35-35-36-36c-9-8-14-19-15-30-2-11 1-23 7-32l-31-30-30-30-5 5-5 5c8 22 9 46 5 69-4 23-14 45-29 64-17 21-40 36-65 44-25 8-52 9-78 3l-16-4-16-5 36-43 36-44-4-19-4-18-37 1-36 43-36 44-7-15-7-15c-12-24-16-50-13-76 3-26 13-51 30-72 16-19 37-33 59-42 23-8 47-11 72-7l10-9 9-10-19-20-20-20-14 14-14 14-50-52-51-52c-5-5-9-11-11-18-2-6-3-14-3-21 1-7 3-14 6-20 3-7 7-13 12-18 6-5 12-9 18-13 6-3 13-4 20-5 1 0 2 0 3 0 1 0 1-1 2-1 7 0 13 2 19 4 6 2 12 6 16 10l51 51 52 51-13 13-13 13 20 21 20 20 85-81 86-80c7-9 16-16 25-20 10-5 20-7 31-7 8 0 16 1 23 4 8 3 16 7 22 12 8 6 14 14 18 22 5 8 8 17 9 27 1 9 0 19-3 28-3 9-8 18-15 26z m-112 291l41 41 11-10 11-11-40-40c-3-3-6-4-9-4-3 0-5 1-8 4l-6 6c-2 2-3 5-3 7 0 3 1 6 3 7z m-316-361c-1-1-4-1-7-1-3 1-7 3-10 6-2 2-3 4-4 6-2 1-2 3-2 5-1 1-1 2 0 3 0 1 0 3 1 4l71 73 12-12 12-12-37-36z m393 0c-7-5-15-7-23-6-8 1-15 5-22 12l-238 227-12-3c-18-4-37-3-54 2-17 6-33 16-44 31-8 9-14 20-18 32-4 11-5 23-5 35l37-45 92-3 20 92-19 23-19 23c12-2 24-6 34-12 11-5 20-13 28-23 12-14 19-31 21-49 2-18 0-37-8-53l-4-7-3-7 121-114 120-113c2-3 4-7 5-10 1-4 2-8 1-12 0-4-1-8-3-11-2-3-4-7-7-9z"/>
<glyph glyph-name="building" unicode="&#47;" d="M405 43l0 469-298 0 0-469-64 0 0-43 426 0 0 43z m-256 426l214 0 0-426-214 0z m43-42l43 0 0-43-43 0z m85 0l43 0 0-43-43 0z m-85-86l43 0 0-42-43 0z m85 0l43 0 0-42-43 0z m-85-85l43 0 0-43-43 0z m85 0l43 0 0-43-43 0z m-85-85l43 0 0-43-43 0z m85 0l43 0 0-43-43 0z"/>
<glyph glyph-name="building-group" unicode="&#58;" d="M299 427l0 85-299 0 0-512 512 0 0 427z m-256 42l213 0 0-426-213 0z m256-426l0 341 170 0 0-341z m85 298l43 0 0-42-43 0z m0-97l43 0 0-42-43 0z m0-97l43 0 0-42-43 0z m-299 260l43 0 0-42-43 0z m86 0l42 0 0-42-42 0z m-86-130l43 0 0-42-43 0z m86 0l42 0 0-42-42 0z m-86-130l43 0 0-42-43 0z m86 0l42 0 0-42-42 0z"/>
<glyph glyph-name="building-group-slant" unicode="&#59;" d="M299 418l0 94-299-115 0-397 512 0 0 311z m-256-51l213 81 0-405-213 0z m256-324l0 328 170-85 0-243z m-214 298l43 0 0-42-43 0z m299-85l43 0 0-43-43 0z m0-85l43 0 0-43-43 0z m-213 170l42 0 0-42-42 0z m-86-85l43 0 0-43-43 0z m86 0l42 0 0-43-42 0z m-86-85l43 0 0-43-43 0z m86 0l42 0 0-43-42 0z"/>
<glyph glyph-name="butterfly" unicode="&#61;" d="M469 454c-8 6-17 10-26 11-9 2-19 1-28-2-33-9-66-45-94-86-28-41-51-87-65-117-14 30-37 76-65 117-28 41-61 77-94 86-9 3-19 4-28 2-9-1-18-5-26-11-23-16-37-44-42-76-4-32 2-69 18-101 6-12 18-32 39-50 22-18 52-35 94-38-1-1-1-1-1-2-1 0-1 0-2-1-18-20-34-44-41-67-7-23-7-45 7-59 3-4 7-7 12-9 6-3 13-5 21-5 0 0 0 0 0 0 0 0 0 0 0 0 13 0 28 5 44 13 15 9 31 22 45 37 4 4 7 8 10 12 3 3 6 7 9 11 3-4 6-8 9-11 3-4 6-8 10-12 14-15 30-28 45-37 16-8 31-13 44-13 8 1 15 3 20 5 6 3 10 6 13 9 14 14 14 36 7 59-7 23-23 47-41 67-1 1-1 1-2 1 0 1 0 1-1 2 42 3 72 20 94 38 21 18 33 38 39 50 16 32 22 69 18 101-5 32-19 60-42 76z m-412-158c-12 23-16 49-14 71 2 23 10 43 24 53 2 1 4 2 6 3 2 0 4 1 6 1 1 0 2 0 3-1 1 0 2 0 4 0 21-7 46-35 71-71 24-36 47-79 64-116-54-13-91-5-117 10-26 14-40 36-47 50z m180-125c-3-8-8-16-13-23-5-8-11-16-17-23-15-16-29-25-40-31-11-5-18-7-21-6-1 3-1 12 5 25 5 12 14 28 29 45 13 14 26 23 36 29 11 5 19 7 23 7 0 0 1 0 1 0 0 0 1 0 1 0l2-2 2-2-4-10z m129-82c-4-2-12 0-22 6-11 5-24 15-38 30-7 7-13 15-18 23-5 7-9 15-12 22l-8 21 2 1 1 2c3 1 11 0 21-6 11-5 25-15 40-30 14-16 24-32 29-44 5-13 6-22 5-25z m89 207c-7-14-21-36-47-50-26-15-63-23-117-10 17 37 40 80 64 116 25 36 50 64 71 71 4 1 7 1 10 0 3 0 6-1 9-3 14-10 22-30 24-53 2-22-2-48-14-71z"/>
<glyph glyph-name="calculator" unicode="&#62;" d="M427 512l-342 0c-21 0-42-21-42-43l0-426c0-26 21-43 42-43l342 0c25 0 42 21 42 43l0 426c0 22-21 43-42 43z m0-469l-342 0 0 426 342 0z m-43 384l-256 0 0-150 256 0z m-43-107l-170 0 0 64 170 0z m-192-93l43 0 0-43-43 0z m86 0l42 0 0-43-42 0z m85 0l43 0 0-43-43 0z m-171-86l43 0 0-42-43 0z m86 0l42 0 0-42-42 0z m85 0l43 0 0-42-43 0z"/>
<glyph glyph-name="calendar" unicode="&#63;" d="M427 469l0 43-43 0 0-43-256 0 0 43-43 0 0-43-85 0 0-469 512 0 0 469z m-342-42l0-43 43 0 0 43 256 0 0-43 43 0 0 43 42 0 0-81-426 0 0 81z m107-235l0 111 128 0 0-111z m128-43l0-106-128 0 0 106z m-277 154l106 0 0-111-106 0z m320 0l106 0 0-111-106 0z m-320-154l106 0 0-106-106 0z m320-106l0 106 106 0 0-106z"/>
<glyph glyph-name="calendar-check" unicode="&#64;" d="M427 469l0 43-43 0 0-43-256 0 0 43-43 0 0-43-85 0 0-469 512 0 0 469z m-342-42l0-43 43 0 0 43 256 0 0-43 43 0 0 43 42 0 0-86-426 0 0 86z m-42-384l0 256 426 0 0-256z m183 42l-81 64 30 34 43-38 89 124 34-26z"/>
<glyph glyph-name="calendar-cross" unicode="&#91;" d="M427 469l0 43-43 0 0-43-256 0 0 43-43 0 0-43-85 0 0-469 512 0 0 469z m-342-42l0-43 43 0 0 43 256 0 0-43 43 0 0 43 42 0 0-86-426 0 0 86z m-42-384l0 256 426 0 0-256z m286 170l-30 34-47-46-43 46-30-29 43-47-43-47 30-30 43 47 47-47 30 30-43 47z"/>
<glyph glyph-name="calendar-minus" unicode="&#93;" d="M427 469l0 43-43 0 0-43-256 0 0 43-43 0 0-43-85 0 0-469 512 0 0 469z m-342-42l0-43 43 0 0 43 256 0 0-43 43 0 0 43 42 0 0-86-426 0 0 86z m-42-384l0 256 426 0 0-256z m123 149l171 0 0-43-171 0z"/>
<glyph glyph-name="calendar-off" unicode="&#94;" d="M512 469l0-354-43 26 0 158-243 0-64 42 307 0 0 86-42 0 0-43-43 0 0 43-256 0 0-43-43 0 0 43-42 0 0-9-43 26 0 25 85 0 0 43 43 0 0-43 256 0 0 43 43 0 0-43z m0-405l-43 30-320 205-64 42-42 26-43 30 0-397 512 0z m-469-21l0 277 30-21 392-256z"/>
<glyph glyph-name="calendar-plus" unicode="&#95;" d="M427 469l0 43-43 0 0-43-256 0 0 43-43 0 0-43-85 0 0-469 512 0 0 469z m-342-42l0-43 43 0 0 43 256 0 0-43 43 0 0 43 42 0 0-86-426 0 0 86z m-42-384l0 256 426 0 0-256z m123 149l171 0 0-43-171 0z m64 64l43 0 0-171-43 0z"/>
<glyph glyph-name="call-forward" unicode="&#96;" d="M504 119l-57 44-29 22-28 22c-2 2-5 3-7 3-3 1-5 2-8 1-2 0-5 0-7-1-2-1-4-3-6-5l-12-11-11-11-23-22c-6 3-15 8-25 16-11 7-23 16-36 28-12 12-26 27-40 45-13 18-27 40-40 65l11 8 10 9 11 9 11 8c2 2 4 4 5 7 1 2 2 5 2 8 1 2 0 5 0 8-1 2-2 5-4 7l-24 31-48 63-25 31c-1 2-3 4-6 5-2 1-5 2-7 3-3 0-6 0-8-1-3 0-5-1-8-3l-64-45-22-15c-1-1-3-2-4-4-1-1-2-3-3-4-1-2-1-4-2-6 0-1 0-3 0-5 0-1 2-26 12-63 9-37 26-87 54-138 29-50 70-102 129-144 58-42 134-74 232-84 0 0 0 0 1 0 0 0 0 0 0 0 0 0 1 0 1 0 0 0 0 0 0 0 2 0 4 0 5 1 2 0 3 0 5 1 1 1 3 2 4 3 1 1 2 2 3 3l16 21 15 20 31 40c1 2 3 5 3 8 1 2 1 5 1 8-1 3-1 5-3 8-1 2-3 4-5 6z m-64-48l-20-27c-79 10-141 34-190 67-49 32-86 72-112 112-27 41-45 83-56 118-11 35-16 64-18 79l15 11 15 10 29 20 18-23 18-23 35-46-9-8-10-8-10-8-10-8c-2-1-3-3-5-5-1-2-2-5-2-7-1-2-1-4-1-7 1-2 1-4 2-7 19-39 39-71 60-97 20-25 41-45 59-59 18-15 34-24 46-31 12-6 19-8 20-9 2 0 4-1 6-1 2 0 4 0 6 1 2 0 4 1 5 2 2 1 4 2 5 3l11 11 10 10 21 21 21-16 21-16 20-16 21-16-10-13z m-184 272l46 1 45 0 46 1 45 1-17-18-17-17-18-18-17-17 7-7 8-8 8-8 7-7 27 26 79 81c2 2 4 4 5 7 1 2 2 5 2 8 0 2-1 5-2 8-1 2-3 5-5 7l-106 106-7-7-16-15-7-8 18-18 17-17 18-18 18-18-184-2 0-11 0-11 0-10z"/>
<glyph glyph-name="call-incoming" unicode="&#123;" d="M504 119l-57 44-57 44c-5 3-10 5-15 4-5 0-9-2-13-6l-23-22-23-22c-12 6-35 20-60 44-26 24-55 59-81 110l21 17 22 17c4 4 7 9 7 15 1 5-1 11-4 15l-48 62-49 63c-3 4-8 7-13 8-5 1-11-1-16-4l-86-60c-3-2-5-5-7-8-2-4-2-7-2-11 0-2 9-99 66-201 58-101 165-207 361-228 0 0 1 0 1 0 1 0 1 0 1 0 4 0 7 1 10 2 3 2 5 4 7 6l62 81c3 5 5 10 4 16-1 5-4 10-8 14z m-84-75c-157 20-249 98-302 180-54 81-70 165-74 196l59 41 36-46 35-46-19-16-20-16c-4-3-6-7-7-12-1-4-1-9 1-14 37-79 83-127 119-156 36-29 64-39 66-40 4-1 8-1 12 0 4 1 7 3 10 5l42 42 83-64-21-27z m-144 214l192 0 0 43-141 0 88 90 88 91-30 30-88-90-88-90 0 140-43 0 0-193c0-5 3-11 7-15 4-4 9-6 15-6z"/>
<glyph glyph-name="call-missed" unicode="&#124;" d="M389 207c-4 3-9 5-14 4-5 0-10-2-13-6l-23-22-23-22c-13 7-35 20-61 44-25 24-54 60-80 110l21 17 21 17c5 4 8 9 8 14 1 6-1 11-4 16l-48 62-49 63c-3 4-8 7-13 8-5 0-11-1-16-4l-86-60c-3-2-5-5-7-8-2-4-2-8-2-11 0-2 9-99 66-201 58-101 165-207 361-228 0 0 1 0 1 0 0 0 1 0 1 0 3 0 6 1 9 2 3 2 6 4 8 6l31 41 30 40c4 5 5 10 4 16 0 5-3 10-8 14l-57 44z m30-163c-156 20-248 98-302 179-53 82-69 166-73 197l29 21 30 20 36-46 35-46-19-16-20-16c-4-3-6-7-7-12-1-4-1-9 1-14 37-79 82-127 119-156 36-29 64-39 66-40 4-1 8-1 12 0 3 1 7 3 10 5l42 42 41-32 41-32-20-27z m93 438l-15 15-15 15-46-46-45-45-45 45-45 45-30-31 45-45 45-45-45-45-45-46 15-15 15-15 90 91 45-45 46-46 15 16 15 15-45 45-46 45 46 46z"/>
<glyph glyph-name="call-on" unicode="&#125;" d="M390 205c-5 3-10 5-15 5-5-1-10-3-13-6l-23-22-23-22c-12 6-35 19-60 43-26 24-55 59-81 109l21 17 22 17c4 4 7 9 7 14 1 6-1 11-4 16l-48 62-49 61c-3 5-8 8-13 8-5 1-11 0-16-3l-86-60c-3-2-5-5-7-8-2-3-2-7-2-11 0-2 9-98 66-199 58-100 165-206 361-226 0 0 1 0 1 0 0 0 1 0 1 0 4 0 7 1 10 2 3 2 5 4 7 6l62 80c3 5 4 11 4 16-1 5-4 10-8 14l-57 44z m30-161c-157 19-249 97-302 178-54 80-70 164-74 195l30 20 29 20 36-45 35-46-19-16-20-16c-4-3-6-7-7-12-1-4-1-9 1-13 37-79 83-127 119-156 36-28 64-38 66-39 4-1 8-1 12 0 4 1 7 3 10 5l21 21 21 20 83-63-21-27z m71 468l-192 0 0-42 141 0-85-87-85-87 15-15 15-14 169 172 0-139 43 0 0 191c0 6-2 11-6 15-4 4-9 6-15 6z"/>
<glyph glyph-name="call-ongoing" unicode="&#126;" d="M389 207c-4 3-9 5-14 4-5 0-10-2-14-6l-22-22-23-22c-13 7-35 20-61 44-25 24-54 60-80 110l21 17 21 17c5 4 7 9 8 15 1 5-1 11-4 15l-48 62-49 63c-3 4-8 7-13 8-6 1-11-1-16-4l-43-30-43-30c-3-2-5-5-7-8-2-4-2-7-2-11 0-2 9-99 66-201 58-101 165-207 361-228 0 0 0 0 1 0 0 0 1 0 1 0 3 0 6 1 9 2 3 2 6 4 8 6l31 41 30 40c4 5 5 10 4 16 0 5-3 10-8 14z m30-163c-156 20-248 98-302 180-53 81-69 165-73 196l29 21 30 20 36-46 35-46-39-32c-4-3-6-7-7-12-1-4-1-9 1-14 37-79 82-127 119-156 36-29 64-39 66-40 4-1 8-1 12 0 3 1 7 3 10 5l42 42 41-32 41-32z m8 383c25-25 39-58 42-91 2-33-7-68-28-96l17-13 17-13c28 37 40 82 37 125-4 43-22 85-55 119-31 31-71 49-113 53-41 4-84-6-120-30l12-18 11-17c28 18 61 26 93 22 32-3 63-17 87-41z m-11-155c14 19 20 42 19 64-2 22-11 44-28 61-16 16-37 25-58 27-21 3-43-2-62-15l12-18 12-17c10 6 22 9 34 8 11-1 23-6 32-15 9-10 14-22 15-34 1-12-2-25-10-35l17-13z"/>
<glyph glyph-name="call-split" unicode="&#92;" d="M390 207c-5 3-10 5-15 4-5 0-9-2-13-6l-46-44c-12 7-35 20-61 44-25 24-54 60-80 110l21 17 22 17c4 4 7 9 7 15 1 5 0 10-4 15l-48 62-49 63c-3 4-8 7-13 8-5 1-11-1-16-4l-43-30-43-30c-3-2-5-5-7-8-2-4-2-7-2-11 0-2 9-99 66-201 58-101 165-208 361-228 0 0 1 0 1 0 1 0 1 0 1 0 4 0 7 1 10 2 3 2 5 4 7 6l31 41 31 40c3 5 5 10 4 16-1 5-4 10-8 14l-57 44z m30-163c-157 20-249 98-302 179-54 82-70 166-74 197l59 41 71-92-39-32c-4-3-6-7-7-12-1-4-1-9 1-14 37-79 83-127 119-156 36-29 64-39 66-40 4-1 8-1 12 0 4 1 7 3 10 5l42 42 83-64z m-79 212l43 0 0 128c0 2-1 5-3 9-1 3-3 6-6 8l-64 56-64 55-12-17-13-17 60-51 59-52z m171 226l-15 15-15 15-36-34-36-34 17-17 17-17 34 36z"/>
<glyph glyph-name="camera-off" unicode="&#57344;" d="M43 94l0 256 96 0-15 22-15 21-88 0c-1 0-3 0-4 0-1-1-2-1-4-1-1-1-2-2-4-3-1 0-2-1-3-2-1-1-2-2-2-3-1-1-2-3-2-4-1-1-1-3-2-4 0-1 0-3 0-4l0-299c0-3 1-6 2-9 1-2 2-4 4-6 2-2 5-4 7-5 3-1 5-2 8-2l326 0-15 22-15 21z m463 293c-2 2-5 3-7 4-3 1-5 2-8 2l-109 0-6 14-7 14-6 14-6 13c-1 2-2 4-3 5-2 2-3 3-5 4-2 1-4 2-5 3-2 0-4 1-7 1l-79-1-80 0c-2 0-3 0-5 0-2-1-3-2-5-3l-38 55-18-12-18-13 51-72 29-41 23-34 12-17 12-18 35-49 35-49 24-35 0 0 27-39 27-39 15-21 15-22 0 0 32-44 34 24-14 20 40 0c3 0 5 1 8 2 2 1 5 3 7 5 2 2 3 4 4 6 1 3 2 6 2 9l0 299c0 3-1 5-2 8-1 3-2 5-4 7z m-238-72c5-1 11-3 16-6 6-3 10-6 15-10 5-6 9-12 12-20 3-7 5-15 5-23 0-2 0-3 0-5 0-1 0-3-1-4z m201-221l-47 0-39 55-38 55c4 8 8 16 10 25 3 8 4 18 4 27 0 14-3 28-8 40-6 12-13 23-22 33-10 9-21 16-33 22-12 5-26 8-40 8-3 0-6 0-9-1-3 0-6 0-9-1l-21 30-22 31 63 0 33 0 33 0 6-14 7-14 6-13 6-14c1-2 2-4 4-5 1-2 3-3 4-4 2-1 4-2 6-3 2 0 4-1 6-1l100 0z m-301 214c-5-7-9-16-11-24-3-9-4-18-4-28 0-14 3-28 8-40 6-12 13-23 22-33 10-9 21-16 33-22 12-5 26-8 40-8 3 0 6 0 9 1 3 0 6 0 9 1l-29 42c-6 1-12 3-17 6-5 3-10 6-15 10-5 6-9 12-12 20-3 7-5 15-5 23 0 2 0 4 0 5 0 2 1 4 1 6l-15 21z"/>
<glyph glyph-name="camera-on" unicode="&#57345;" d="M491 393l-109 0-12 28-13 27c-2 4-5 7-8 9-3 2-7 4-11 4l0 0-160-1c-4 0-8-1-11-3-4-3-6-6-8-10l-24-54-57 0-57 0 0 0c-3 0-5 0-8-2-2-1-5-2-7-4-2-2-3-4-4-7-1-3-2-5-2-8l0-299c0-6 2-12 6-15 4-4 9-7 15-7l470 0c6 0 11 3 15 7 4 3 6 9 6 15l0 299c0 6-2 11-6 15-4 4-9 6-15 6z m-22-299l-426 0 0 256 53 0 53 0 0 0c5 0 9 1 12 4 4 2 6 5 8 9l24 55 131 0 25-55c2-4 5-7 8-9 4-2 8-3 12-3l100 0z m-213 265c-28 0-54-12-73-30-18-19-30-45-30-73 0-28 12-54 30-73 19-18 45-30 73-30 28 0 54 12 73 30 18 19 30 45 30 73 0 28-12 54-30 73-19 18-45 30-73 30z m0-163c-17 0-32 6-43 17-11 11-17 26-17 43 0 17 6 32 17 43 11 11 26 17 43 17 17 0 32-6 43-17 11-11 17-26 17-43 0-17-6-32-17-43-11-11-26-17-43-17z"/>
<glyph glyph-name="cart" unicode="&#57346;" d="M433 233l38 91 39 91c2 3 2 7 2 10 0 4-2 7-4 10-1 3-4 6-7 7-3 2-7 3-10 3l-374 0-8 22-9 23-100 0 0-43 71 0 58-154 58-154 1 0c-10-5-18-13-24-22-6-10-10-21-10-33 0-17 7-32 18-44 11-11 27-18 43-18 17 0 33 7 44 18 11 12 18 27 18 44 0 12-4 23-10 33-6 9-14 17-24 22l119 0c-10-5-19-13-25-22-6-10-9-21-9-33 0-17 6-32 18-44 11-11 26-18 43-18 17 0 32 7 43 18 11 12 18 27 18 44 0 12-3 23-9 33-6 9-15 17-25 22l11 0 0 42-211 0-7 19-7 20 211 0c4 0 8 1 12 3 3 3 6 6 8 10z m-218-168c-5 0-10 2-13 5-3 4-6 9-6 14 0 5 3 10 6 13 3 4 8 6 13 6 6 0 11-2 14-6 3-3 6-8 6-13 0-5-3-10-6-14-3-3-8-5-14-5z m174 0c-5 0-10 2-14 5-3 4-5 9-5 14 0 5 2 10 5 13 4 4 9 6 14 6 5 0 10-2 13-6 4-3 6-8 6-13 0-5-2-10-6-14-3-3-8-5-13-5z m-199 197l-50 140 319 0-30-70-30-70z"/>
<glyph glyph-name="cart-check" unicode="&#57347;" d="M469 384l-136 124-26-30 98-94-298 0 102 94-30 34-136-128-43 0 0-128 43 0 21-256 380 0 25 256 43 0 0 128z m0-85l-42 0-22-256-298 0-22 256-42 0 0 42 426 0z m-209-201l-85 64 26 34 51-38 98 136 34-25z"/>
<glyph glyph-name="cart-cross" unicode="&#57348;" d="M469 384l-136 124-26-30 98-94-298 0 102 94-30 34-136-128-43 0 0-128 43 0 21-256 380 0 25 256 43 0 0 128z m0-85l-42 0-22-256-298 0-22 256-42 0 0 42 426 0z m-290-150l30-30 47 43 47-43 30 30-47 47 47 43-30 30-47-43-47 43-30-30 47-43z"/>
<glyph glyph-name="cart-minus" unicode="&#57349;" d="M469 384l-136 124-26-30 98-94-298 0 102 94-30 34-136-128-43 0 0-128 43 0 21-256 380 0 25 256 43 0 0 128z m0-85l-42 0-22-256-298 0-22 256-42 0 0 42 426 0z m-298-81l170 0 0-43-170 0z"/>
<glyph glyph-name="cart-plus" unicode="&#57350;" d="M469 384l-136 124-26-30 98-94-298 0 102 94-30 34-136-128-43 0 0-128 43 0 21-256 380 0 25 256 43 0 0 128z m0-85l-42 0-22-256-298 0-22 256-42 0 0 42 426 0z m-234-192l42 0 0 68 64 0 0 43-64 0 0 64-42 0 0-64-64 0 0-43 64 0z"/>
<glyph glyph-name="cast" unicode="&#57351;" d="M0 512l0-128 43 0 0 85 426 0 0-422-85 0 0-43 128 0 0 508z m21-286c-12 0-21-8-21-21 0-13 9-22 21-22 90 0 167-76 167-162 0-12 8-21 21-21 13 0 21 9 21 21 0 111-93 205-209 205z m5 94c-13 0-22-9-22-21 0-13 9-22 22-22 140 0 256-115 256-251 0-13 8-22 21-22 13 0 21 9 21 22 0 162-136 294-298 294z m8-209c-13 0-25-4-34-9l0-102 102 0c5 9 9 21 9 34 0 43-34 77-77 77z"/>
<glyph glyph-name="celebration" unicode="&#57352;" d="M414 300l-137 0 0 34c17 5 32 15 43 28 10 14 17 31 17 50 0 21-15 42-30 59-16 16-33 29-39 33l-6 4-6 4-6-4-6-4c-6-4-23-17-39-33-15-17-30-38-30-59 0-19 7-36 17-50 11-13 26-23 43-28l0-34-137 0c-27 0-52-10-69-26-18-16-29-38-29-62l0-212 512 0 0 212c0 24-11 46-29 62-17 16-42 26-69 26z m-196 112c0 5 4 13 12 21 7 9 16 18 26 26 10-8 19-17 26-26 8-8 12-16 12-21 0-11-4-20-11-27-7-7-16-11-27-11-11 0-20 4-27 11-7 7-11 16-11 27z m-120-155l316 0c16 0 29-5 39-13 10-8 16-20 16-32l0-57c-1 2-2 4-3 7-2 2-3 5-4 7-6 12-13 25-23 36-10 11-23 19-41 19-17 0-30-8-40-19-10-11-17-24-23-36-5-9-9-17-13-22-5-6-8-9-13-9-4 0-8 3-12 9-4 5-8 13-13 22-6 12-13 25-23 36-10 11-23 19-41 19-17 0-30-8-40-19-10-11-17-24-23-36-5-9-9-17-13-22-4-6-8-9-12-9-5 0-9 3-13 9-4 5-8 13-13 22-6 11-13 25-22 35-10 11-22 19-38 19 3 10 9 18 19 25 9 6 20 9 33 9z m-55-214l0 138c4 0 8-3 12-9 4-5 8-13 13-22 6-12 13-26 23-36 10-11 23-19 41-19 17 0 30 8 40 19 10 10 17 24 23 36 5 9 9 17 13 22 4 6 8 9 12 9 5 0 9-3 13-9 4-5 8-13 13-22 6-12 13-26 23-36 10-11 23-19 40-19 18 0 31 8 41 19 10 10 17 24 23 36 5 9 9 17 13 22 4 6 8 9 12 9 5 0 8-3 13-9 4-5 8-13 13-22 5-10 10-20 17-30 8-9 17-17 28-21l0-56z"/>
<glyph glyph-name="chair" unicode="&#57353;" d="M512 427c0 68-162 85-256 85-94 0-256-17-256-85 0-60 141-81 235-86l0-128-141-175 30-29 115 145 0-154 43 0 0 158 111-149 29 29-145 180 0 128c94 0 235 21 235 81z m-256 42c132 0 205-30 213-42-8-13-81-43-213-43-137 4-209 34-213 43 4 12 76 42 213 42z"/>
<glyph glyph-name="chat" unicode="&#57354;" d="M0 512l0-384 299 0 0-128 140 128 73 0 0 384z m469-341l-47 0-81-77 0 77-298 0 0 298 426 0z m-384 228l342 0 0-43-342 0z m0-104l246 0 0-43-246 0z"/>
<glyph glyph-name="chat-check" unicode="&#57355;" d="M0 512l0-384 299 0 0-128 140 128 73 0 0 384z m469-341l-47 0-81-77 0 77-298 0 0 298 426 0z m-230 59l-90 64 26 35 55-39 99 137 34-26z"/>
<glyph glyph-name="chat-cross" unicode="&#57356;" d="M0 512l0-384 299 0 0-128 140 128 73 0 0 384z m469-341l-47 0-81-77 0 77-298 0 0 298 426 0z m-290 102l30-30 47 47 43-47 30 30-43 47 47 43-34 34-43-47-47 43-30-30 47-43z"/>
<glyph glyph-name="chat-group" unicode="&#57357;" d="M192 218l192 0 0 294-384 0 0-294 55 0 137-137 0 51c0 9 0 51 0 86z m-43 21c0-13 0-34 0-56l-76 73-30 0 0 213 298 0 0-213-192 0z m278 166l0-42 42 0 0-192-30 0-55-60c0 17 0 30 0 43l0 21-128 0 0-43 85 0c0-34 0-72 0-77l0-55 116 132 55 0 0 273z"/>
<glyph glyph-name="chat-minus" unicode="&#57358;" d="M0 512l0-384 299 0 0-128 140 128 73 0 0 384z m469-341l-47 0-81-77 0 77-298 0 0 298 426 0z m-298 170l170 0 0-42-170 0z"/>
<glyph glyph-name="chat-o" unicode="&#57359;" d="M256 512c-141 0-256-98-256-213 0-77 47-145 128-184-4-30-17-60-55-72-9-5-18-13-13-26 0-8 13-17 21-17 4 0 124 4 175 81 141 0 256 98 256 213 0 120-115 218-256 218z m0-388c-4 0-9 0-13 0-8 0-17-5-21-13-13-30-43-47-73-56 17 30 22 56 22 73 0 9-5 17-13 21-73 26-115 86-115 150 0 94 94 170 213 170 119 0 213-76 213-170 0-94-94-175-213-175z"/>
<glyph glyph-name="chat-plus" unicode="&#57360;" d="M0 512l0-384 299 0 0-128 140 128 73 0 0 384z m469-341l-47 0-81-77 0 77-298 0 0 298 426 0z m-234 59l42 0 0 69 64 0 0 42-64 0 0 64-42 0 0-64-64 0 0-42 64 0z"/>
<glyph glyph-name="chat-language" unicode="&#57361;" d="M0 512l0-384 299 0 0-128 140 128 73 0 0 384z m469-341l-47 0-81-77 0 77-298 0 0 298 426 0z m-303 42c9-4 17 0 26 9l26 55 76 0 26-55c4-9 13-17 30-13 4 0 13 17 4 30l-81 171c-8 12-13 17-21 17-9 0-13-5-17-13l-81-171c-5-13 0-25 12-30z m86 141l21-34-38 0z"/>
<glyph glyph-name="check" unicode="&#57362;" d="M205 38l-205 145 26 35 166-120 286 376 34-26z"/>
<glyph glyph-name="check-o" unicode="&#57363;" d="M218 183l-77 56-26-34 111-86 162 231-34 21z m38 329c-141 0-256-115-256-256 0-141 115-256 256-256 141 0 256 115 256 256 0 141-115 256-256 256z m0-469c-119 0-213 94-213 213 0 119 94 213 213 213 119 0 213-94 213-213 0-119-94-213-213-213z"/>
<glyph glyph-name="check-s" unicode="&#57364;" d="M0 512l0-512 512 0 0 512z m469-469l-426 0 0 426 426 0z m-47 328l-34 26-166-231-90 73-25-34 128-98z"/>
<glyph glyph-name="chevron-arrow-bottom" unicode="&#57365;" d="M478 427l-222-273-222 273-34-26 256-316 256 316z"/>
<glyph glyph-name="chevron-arrow-left" unicode="&#57366;" d="M427 34l-273 222 273 222-26 34-316-256 316-256z"/>
<glyph glyph-name="chevron-arrow-right" unicode="&#57367;" d="M85 478l273-222-273-222 26-34 316 256-316 256z"/>
<glyph glyph-name="chevron-arrow-top" unicode="&#57368;" d="M34 85l222 273 222-273 34 26-256 316-256-316z"/>
<glyph glyph-name="chip" unicode="&#57369;" d="M512 320l0 43-85 0 0 64-64 0 0 85-43 0 0-85-43 0 0 85-42 0 0-85-43 0 0 85-43 0 0-85-64 0 0-64-85 0 0-43 85 0 0-43-85 0 0-42 85 0 0-43-85 0 0-43 85 0 0-64 64 0 0-85 43 0 0 85 43 0 0-85 42 0 0 85 43 0 0-85 43 0 0 85 64 0 0 64 85 0 0 43-85 0 0 43 85 0 0 42-85 0 0 43z m-128-192l-256 0 0 256 256 0z"/>
<glyph glyph-name="chip-s" unicode="&#57370;" d="M0 512l0-512 512 0 0 512z m469-235l-85 0 0 107-107 0 0 85 192 0z m-298-106l0 170 170 0 0-170z m64 298l0-85-107 0 0-107-85 0 0 192z m-192-234l85 0 0-107 107 0 0-85-192 0z m234-192l0 85 107 0 0 107 85 0 0-192z"/>
<glyph glyph-name="clock" unicode="&#57371;" d="M256 512c-141 0-256-115-256-256 0-141 115-256 256-256 141 0 256 115 256 256 0 141-115 256-256 256z m0-469c-119 0-213 94-213 213 0 119 94 213 213 213 119 0 213-94 213-213 0-119-94-213-213-213z m21 384l-42 0 0-188 119-43 17 43-94 30z"/>
<glyph glyph-name="cloud" unicode="&#57372;" d="M379 351c-6 0-12-1-18-1-6-1-12-2-18-4-10 24-27 44-49 58-21 14-46 22-73 22-37 0-70-14-94-38-24-24-39-58-39-94 0-2 0-3 0-4 0-2 0-3 0-4-25-3-47-15-63-33-15-18-25-42-25-67 0-28 11-53 29-71 19-18 44-29 71-29l279 0c37 0 70 14 94 38 24 24 39 58 39 94 0 37-15 70-39 94-24 24-57 39-94 39z m0-223l-279 0c-16 0-30 7-40 17-11 11-17 25-17 41 0 16 6 30 17 41 10 10 24 17 40 17 2 0 3 0 5 0 1-1 3-1 4-1l18-4 18-3-6 17-5 17c-1 4-2 7-3 11 0 4 0 8 0 13 0 25 10 47 26 63 16 17 39 27 64 27 21 0 41-7 56-20 16-12 27-30 32-51l5-26 13 6 12 6c6 3 13 5 19 7 7 1 14 2 21 2 25 0 47-10 64-26 16-16 26-39 26-64 0-25-10-47-26-63-17-17-39-27-64-27z"/>
<glyph glyph-name="cloud-download" unicode="&#57373;" d="M277 81l0 260-42 0 0-260-60 51-30-30 111-102 98 102-30 30z m201 273c-26 26-56 30-77 34-8 73-72 124-149 124-73 0-137-55-145-128-22-4-52-13-73-38-21-22-34-47-34-86 0-64 51-119 119-119l26 0 0 42-26 0c-42 5-76 39-76 77 0 34 12 56 38 69 21 12 43 12 43 12l21 0 0 22c4 59 51 106 107 106 59 0 106-47 106-102l0-21 22 0c0 0 42 0 68-22 13-13 21-34 21-55 0-43-34-81-76-81l-22 0 0-43 17 0c69 0 120 56 120 124 4 34-9 64-30 85z"/>
<glyph glyph-name="cloud-off" unicode="&#57374;" d="M100 128c-8 0-15 2-22 5-7 3-13 7-18 12-6 5-10 12-13 18-3 7-4 15-4 23 0 8 1 15 4 22 3 7 7 14 13 19 5 5 11 9 18 12 7 3 14 5 22 5l5 0c1 0 1 0 2-1 1 0 2 0 2 0l9-2 9-2 9-2 9-1-6 17-2 9-3 8c-1 2-1 4-2 6 0 1 0 3-1 5 0 2 0 4 0 6 0 2 0 4 0 7 0 6 0 12 1 17 2 6 3 11 5 17l-13 20-13 20c-8-11-13-23-17-35-4-13-6-26-6-39l0-4c0-1 0-2 0-2 0-1 0-1 0-2-12-2-24-5-35-11-10-6-20-13-27-22-8-9-15-19-19-31-5-11-7-23-7-36 0-14 3-27 8-39 5-12 12-23 21-32 9-9 20-17 32-22 12-5 25-8 39-8l200 0-15 22-14 21z m412 90c0 19-4 36-10 52-7 16-17 30-29 42-12 12-26 22-42 28-16 7-34 11-52 11-3 0-6 0-9-1-3 0-6 0-9 0-3-1-6-1-9-2-3 0-6-1-9-2-5 12-12 23-20 33-8 10-18 18-29 25-10 8-22 13-34 17-13 4-26 6-39 6-8 0-15-1-22-2-8-1-14-3-21-6l-40 60-17-12-18-12 0-1 37-55 24-35 78-118 79-118 14-21 14-22 36-53 1 1 17 12 18 11-21 31c14 2 28 7 40 13 12 7 23 15 33 25 12 12 22 26 29 42 6 16 10 33 10 51z m-69-64c-8-8-18-14-29-19-11-4-23-7-35-7l-6 0-85 127-85 127c2 1 5 1 8 1 3 1 6 1 10 1 10 0 20-2 30-5 9-4 18-9 26-15 8-6 15-14 20-22 5-9 9-18 11-28l3-14 3-13 6 3 6 3 7 3 6 3c3 2 6 3 9 4 4 1 7 2 10 3 4 1 7 1 11 2 3 0 6 0 10 0 12 0 24-2 35-7 11-4 21-11 29-19 8-8 15-18 19-29 5-10 7-22 7-35 0-12-2-24-7-35-4-11-11-20-19-29z"/>
<glyph glyph-name="cloud-upload" unicode="&#57375;" d="M226 256l0-256 43 0 0 260 60-55 25 34-107 102-102-102 34-34z m252 98c-26 26-56 30-77 34-8 73-72 124-149 124-73 0-137-55-145-128-22-4-52-13-73-38-21-22-34-47-34-86 0-64 51-119 119-119l26 0 0 42-26 0c-42 5-76 39-76 77 0 34 12 56 38 69 21 12 43 12 43 12l21 0 0 22c4 59 51 106 107 106 59 0 106-47 106-102l0-21 22 0c0 0 42 0 68-22 13-13 21-34 21-55 0-43-34-81-76-81l-22 0 0-43 17 0c69 0 120 56 120 124 4 34-9 64-30 85z"/>
<glyph glyph-name="code" unicode="&#57376;" d="M30 512l-30-30 222-222-222-222 30-34 252 256z m136-469l346 0 0-43-346 0z"/>
<glyph glyph-name="code-magic" unicode="&#57377;" d="M115 286l-115-111 115-115 30 30-85 85 85 81z m282 0l-30-30 85-81-85-81 30-34 115 115z m-205-286l43 0 85 350-43 0z m21 329l17 51 56 21-56 13-17 60-17-60-55-13 55-21z m-128 110l9 22 30 13-30 8-9 30-8-30-30-8 30-13z m-21-136l13 26 30 17-30 4-13 38-9-38-34-4 34-17z"/>
<glyph glyph-name="code-editor" unicode="&#57378;" d="M111 337l-26-34 120-90-120-89 26-34 166 123z m102-209l214 0 0-43-214 0z m-213 384l0-512 512 0 0 512z m469-43l0-42-426 0 0 42z m-426-426l0 341 426 0 0-341z"/>
<glyph glyph-name="code-editor-s" unicode="&#57379;" d="M183 277c-8 9-21 9-29 5l-60-47c-4-5-9-13-9-17 0-5 5-13 9-17l60-47c4-5 8-5 12-5 5 0 13 5 17 9 9 8 5 21-4 30l-38 30 38 29c9 9 9 22 4 30z m175 5c-8 4-21 4-29-5-5-8-5-21 4-30l38-29-38-30c-9-9-9-22-4-30 4-4 12-9 17-9 4 0 8 0 12 5l60 47c4 4 9 8 9 17 0 4-5 12-9 17z m-72 17c-13 4-26 0-30-13l-43-124c-4-13 5-25 13-30 4 0 4 0 9 0 8 0 17 5 21 13l43 124c4 17-5 25-13 30z m-286 213l0-512 512 0 0 512z m469-85l-85 0 0 42 85 0z m-128 42l0-42-298 0 0 42z m-298-426l0 341 426 0 0-341z"/>
<glyph glyph-name="coffee-cup" unicode="&#57380;" d="M85 145c34-43 81-64 128-64 64 0 124 43 162 111 9-4 22-4 30-4 56 0 103 42 103 94 0 47-34 81-81 93 0 18 4 35 4 52 4 55-111 85-213 85-103 0-218-30-218-90 0-98 21-183 60-243-34-17-60-42-60-72 0-69 119-107 235-107 115 0 234 38 234 107l-42 0c0-26-77-64-192-64-116 0-192 38-192 64 0 12 17 25 42 38z m133-21c-30 0-60 13-86 34 30 8 64 13 103 13 21 0 47-5 72-9-25-25-60-38-89-38z m251 158c0-30-25-52-59-52-5 0-9 0-9 0 9 30 17 64 26 99 25-5 42-26 42-47z m-251 187c111 0 175-34 175-47 0-12-60-47-175-47-116 0-175 35-175 47 0 13 59 47 175 47z m-171-102c43-21 107-30 171-30 64 0 128 9 170 30-8-64-25-124-51-162-30 4-72 8-102 8-47 0-94-8-133-17-29 43-51 103-55 171z"/>
<glyph glyph-name="coffee-cup-s" unicode="&#57381;" d="M111 90l252 0c38 0 68 29 68 68l0 85c51 26 85 73 85 128 0 73-59 132-136 141-9 0-13 0-22 0l-315 0 0-354c0-39 30-68 68-68z m358 277c0-30-17-60-42-77l0 154c25-17 42-47 42-77z m-384 102l269 0c4 0 9 0 13 0 8-4 17-12 17-25l0-290c0-13-9-26-26-26l-247 0c-13 4-26 13-26 30z m-85-426l512 0 0-43-512 0z"/>
<glyph glyph-name="college" unicode="&#57382;" d="M469 128l0 216 22 0c5 0 9 2 13 5 3 2 6 6 7 11 2 5 1 10-1 14-2 4-5 8-9 10l-233 125c-3 2-6 3-10 3-3 0-7-1-10-2l-118-63-119-63c-4-2-7-6-9-10-2-4-3-9-1-14 1-4 4-8 7-11 4-3 8-5 13-5l22 0 0-216-43 0 0-128 512 0 0 128z m-211 339l148-80-299 0z m169-123l0-216-86 0 0 216z m-128 0l0-216-86 0 0 216z m-214 0l86 0 0-216-86 0z m384-301l-426 0 0 42 426 0z"/>
<glyph glyph-name="colour-drop" unicode="&#57383;" d="M273 489l-8 12-9 11-9-11-8-12c-9-11-49-65-88-128-38-63-75-135-75-181 0-50 20-95 53-127 32-33 77-53 127-53 50 0 95 20 127 53 33 32 53 77 53 127 0 46-37 118-75 181-39 63-79 117-88 128z m-17-446c-38 0-72 15-97 40-24 25-40 59-40 97 0 29 22 77 50 126 28 49 62 99 87 134 25-35 59-85 87-134 28-49 50-97 50-126 0-38-16-72-40-97-25-25-59-40-97-40z"/>
<glyph glyph-name="colour-drop-off" unicode="&#57384;" d="M256 43c-38 0-72 15-97 40-25 25-40 59-40 97 0 24 15 62 37 102l-31 35c-27-51-49-102-49-137 0-50 20-95 53-127 32-33 78-53 127-53 44 0 85 16 116 43l-29 32c-23-20-54-32-87-32z m167 70c8 21 13 44 13 67 0 46-37 118-75 181-39 63-79 117-88 128l-8 11-9 12-9-12-8-11c-7-9-36-48-68-97l-39 43-32-29 1-1 46-51 30-34 194-214 30-32 40-45 1 1 31 28z m-222 246c20 30 39 59 55 81 25-35 59-85 87-134 28-49 50-97 50-126 0-10-1-20-3-30z"/>
<glyph glyph-name="colour-picker" unicode="&#57385;" d="M495 137l-243 243 42 47-85 85-43-47-17 17c-30 30-89 30-119 0-17-17-26-38-26-60 0-21 9-42 26-59l13-17-43-47 85-86 47 47 243-243c39-38 124 0 124 0 0 0 30 90-4 120z m-435 162l47 47c0 0-60 64-60 76 0 13 4 26 17 35 17 12 38 12 55-5l43-47 47 47 26-25-150-154z m405-248c-21-8-51-8-60 0l-243 239 60 60 243-243c9-9 4-34 0-56z"/>
<glyph glyph-name="compass" unicode="&#57386;" d="M422 209c26 30 43 64 47 107 5 59-12 98-42 141l-34-26c25-34 34-73 29-115 0-22-8-43-21-64l-90 179c-8 17-17 30-34 34l0 47-42 0 0-47c-17-4-26-17-34-30l-201-418 38-17 99 201c38-39 89-60 140-60 39 0 81 13 116 38l85-179 34 17z m-166 222c13 0 26-13 26-26 0-12-13-25-26-25-13 0-26 13-26 25 0 13 13 26 26 26z m-102-188l55 115c13-12 30-21 47-21 17 0 34 9 47 21l64-140c-64-52-162-39-213 25z"/>
<glyph glyph-name="compass-east" unicode="&#57387;" d="M511 250c-1-2-1-4-3-6-1-2-2-3-4-4-1-2-3-3-5-4l-118-48-234-96-118-48c-2-1-4-2-6-2-2 0-4 0-6 1-2 0-4 1-6 2-2 1-4 2-5 4-2 2-3 4-4 6-1 1-2 4-2 6 0 2 0 4 0 6 1 2 1 4 2 6l92 177-23 47-23 47-23 48-23 47c-1 2-1 4-2 6 0 3 0 5 0 7 1 2 1 4 2 6 1 2 2 4 4 5 1 2 3 3 5 4 2 1 4 2 6 2 2 1 4 1 6 1 2 0 4-1 6-2l118-48 234-96 118-48c2-1 4-2 5-4 2-1 3-2 4-4 2-2 2-4 3-6 1-2 1-4 1-6 0-2 0-4-1-6z m-428 120l18-37 18-37 18-37c0-2 1-4 1-5 1-2 1-3 1-5 0-2-1-3-1-5 0-1-1-3-2-4l-69-135 92 38 276 113-93 38-92 38-185 76z"/>
<glyph glyph-name="compass-north" unicode="&#57388;" d="M256 512c2 0 4 0 6-1 2-1 4-1 6-3 2-1 3-2 4-4 2-1 3-3 4-5l48-118 96-234 48-118c1-2 2-4 2-6 0-2 0-4-1-6 0-2-1-4-2-6-1-2-2-4-4-5-1-2-3-3-5-4-2-1-4-1-6-2-2 0-4 0-7 0-2 1-4 1-6 2l-47 23-48 23-47 23-47 23-177-92c-2-1-4-1-6-2-2 0-4 0-6 0-2 0-5 1-6 2-2 1-4 2-6 4-2 1-3 3-4 5-1 2-2 4-2 6-1 2-1 4-1 6 0 2 1 4 2 6l48 118 96 234 48 118c1 2 2 4 4 5 1 2 2 3 4 4 2 2 4 2 6 3 2 1 4 1 6 1z m152-447l-76 185-38 92-38 93-113-276-38-92 135 69c1 1 3 2 4 2 2 0 3 1 5 1 2 0 3 0 5-1 1 0 3-1 5-1l37-18 37-18 37-18z"/>
<glyph glyph-name="compass-o" unicode="&#57389;" d="M256 512c-141 0-256-115-256-256 0-141 115-256 256-256 141 0 256 115 256 256 0 141-115 256-256 256z m0-469c-119 0-213 94-213 213 0 119 94 213 213 213 119 0 213-94 213-213 0-119-94-213-213-213z m-128 85l192 64 64 192-192-64z m98 158l94 30-34-90-90-30z"/>
<glyph glyph-name="compass-s" unicode="&#57390;" d="M124 384l-124-384 384 128 128 384z m30-55l175-175-261-86z m204-146l-175 175 261 86z"/>
<glyph glyph-name="compass-south" unicode="&#57391;" d="M256 0c-2 0-4 0-6 1-2 1-4 1-6 3-2 1-3 2-4 4-2 1-3 3-4 5l-48 118-96 234-48 118c-1 2-2 4-2 6 0 2 0 4 1 6 0 2 1 4 2 6 1 2 2 4 4 5 1 2 3 3 5 4 2 1 4 1 6 2 2 0 4 0 7 0 2-1 4-1 6-2l47-23 48-23 47-23 47-23 177 92c2 1 4 1 6 2 2 0 4 0 6 0 2 0 5-1 6-2 2-1 4-2 6-4 2-1 3-3 4-5 1-2 2-4 2-6 1-2 1-4 1-6 0-2-1-4-2-6l-48-118-96-234-48-118c-1-2-2-4-4-5-1-2-2-3-4-4-2-2-4-2-6-3-2-1-4-1-6-1z m-152 447l76-185 38-92 38-93 113 276 38 92-135-69c-1-1-3-2-4-2-2 0-3-1-5-1-2 0-3 0-5 1-1 0-3 1-5 1l-37 18-37 18-37 18z"/>
<glyph glyph-name="compass-west" unicode="&#57392;" d="M0 256c0 2 0 4 1 6 1 2 1 4 3 6 1 2 2 3 4 4 1 2 3 3 5 4l118 48 234 96 118 48c2 1 4 2 6 2 2 0 4 0 6-1 2 0 4-1 6-2 2-1 4-2 5-4 2-1 3-3 4-5 1-2 1-4 2-6 0-2 0-4 0-7-1-2-1-4-2-6l-23-47-23-48-23-47-23-47 92-177c1-2 1-4 2-6 0-2 0-4 0-6 0-2-1-5-2-6-1-2-2-4-4-6-1-2-3-3-5-4-2-1-4-2-6-2-2-1-4-1-6-1-2 0-4 1-6 2l-118 48-234 96-118 48c-2 1-4 2-5 4-2 1-3 2-4 4-2 2-2 4-3 6-1 2-1 4-1 6z m447 152l-185-76-92-38-93-38 276-113 92-38-69 135c-1 1-2 3-2 4 0 2-1 3-1 5 0 2 0 3 1 5 0 1 1 3 1 5l18 37 18 37 18 37z"/>
<glyph glyph-name="connect" unicode="&#57393;" d="M286 256c0-68-56-119-120-119-64 0-123 51-123 119 0 68 55 119 119 119 4 0 13 0 17 0l4 43c-8 0-12 0-21 0-89 0-162-72-162-162 0-90 73-162 162-162 90 0 167 72 167 162z m64 162c-94 0-167-72-167-162l43 0c0 68 56 119 120 119 68 0 123-51 123-119 0-68-55-119-119-119-4 0-13 0-17 0l-4-43c8 0 12 0 21 0 89 0 162 72 162 162 0 90-73 162-162 162z"/>
<glyph glyph-name="contact" unicode="&#57394;" d="M43 512l0-128-43 0 0-43 43 0 0-85-43 0 0-43 43 0 0-85-43 0 0-43 43 0 0-85 469 0 0 512z m42-43l43 0 0-426-43 0z m384-426l-298 0 0 426 298 0z m-256 349l214 0 0-43-214 0z m0-119l214 0 0-43-214 0z m0-119l214 0 0-42-214 0z"/>
<glyph glyph-name="copyright" unicode="&#57396;" d="M256 512c-71 0-135-29-181-75-46-46-75-110-75-181 0-71 29-135 75-181 46-46 110-75 181-75 71 0 135 29 181 75 46 46 75 110 75 181 0 71-29 135-75 181-46 46-110 75-181 75z m0-469c-59 0-112 24-151 62-38 39-62 92-62 151 0 59 24 112 62 151 39 38 92 62 151 62 59 0 112-24 151-62 38-39 62-92 62-151 0-59-24-112-62-151-39-38-92-62-151-62z m0 298c6 0 11 0 17-1 6-1 11-3 16-5 10-4 19-11 27-18 8-8 14-17 18-27l39 17c-6 16-16 29-27 40-11 12-25 21-40 27-8 3-16 6-25 8-8 1-16 2-25 2-35 0-67-14-90-37-24-24-38-56-38-91 0-35 14-67 38-90 23-23 55-38 90-38 9 0 18 1 26 3 9 2 17 4 25 8 15 6 28 16 39 27 12 11 21 24 27 39l-39 17c-4-10-10-19-18-26-7-8-16-14-26-18-5-2-11-4-17-5-5-1-11-2-17-2-24 0-45 10-60 25-16 15-25 37-25 60 0 24 9 45 25 60 15 16 36 25 60 25z"/>
<glyph glyph-name="credit-card" unicode="&#57397;" d="M452 448l-392 0c-34 0-60-30-60-64l0-256c0-34 26-60 60-60l388 0c34 0 60 26 60 60l0 256c4 34-22 64-56 64z m-392-43l388 0c13 0 21-8 21-21l0-43-426 0 0 43c0 13 8 21 17 21z m392-298l-392 0c-9 0-17 8-17 21l0 171 426 0 0-171c0-13-8-21-17-21z m-111 85l86 0 0-43-86 0z"/>
<glyph glyph-name="crop" unicode="&#57398;" d="M512 149l-363 0 0 363-42 0 0-107-107 0 0-42 107 0 0-256 256 0 0-107 42 0 0 107 107 0z m-149 43l42 0 0 213-213 0 0-42 171 0z"/>
<glyph glyph-name="crown" unicode="&#57399;" d="M447 401c-18 0-34-7-46-19-12-12-19-28-19-46 0-3 1-7 1-10 1-3 2-7 3-10l-52-31-16 35-16 35c7 6 12 13 15 21 4 8 6 16 6 26 0 18-7 34-19 46-12 11-28 19-46 19-18 0-34-8-46-19-12-12-19-28-19-46 0-9 2-16 5-24 2-7 7-13 12-19l-19-37-18-37-23 16-24 16c1 3 2 6 3 9 0 3 1 7 1 10 0 18-8 34-19 46-12 12-28 19-46 19-18 0-34-7-46-19-12-12-19-28-19-46 0-17 7-32 17-44 11-11 26-19 42-20l31-92 31-92-34 0 0-43 338 0 0 43-40 0 27 92 28 92c1 0 3 0 4-1 1 0 2 0 3 0 18 0 34 7 46 19 12 12 19 28 19 46 0 18-7 34-19 46-12 12-28 19-46 19z m-189 23c6 0 12-2 16-6 4-4 7-10 7-16 0-6-3-12-7-16-4-4-10-7-16-7-6 0-12 3-16 7-4 4-7 10-7 16 0 6 3 12 7 16 4 4 10 6 16 6z m-216-88c0 6 3 12 7 16 4 4 10 7 16 7 6 0 12-3 16-7 4-4 7-10 7-16 0-6-3-12-7-16-4-4-10-7-16-7-6 0-12 3-16 7-4 4-7 10-7 16z m298-248l-174 0-32 94-32 94 5 3 41-28 42-28 55 111 20 0 26-55 25-55 81 49-28-93z m107 225c-6 0-12 3-16 7-4 4-7 10-7 16 0 6 3 12 7 16 4 4 10 7 16 7 6 0 12-3 16-7 4-4 7-10 7-16 0-6-3-12-7-16-4-4-10-7-16-7z"/>
<glyph glyph-name="cube" unicode="&#57400;" d="M256 512l-256-124 0-269 256-119 256 115 0 273z m183-137l-183-76-183 76 183 90z m-396-34l192-81 0-205-192 86z m234-286l0 210 192 76 0-200z"/>
<glyph glyph-name="cube-in" unicode="&#57401;" d="M393 363l-18-39 22-13-141-55-137 55 18 9-18 38-76-29 0-231 213-98 213 98 0 226z m-308-81l150-64 0-163-150 69z m192-227l0 163 150 64 0-158z m77 350l-30 30-47-47 0 124-42 0 0-128-52 43-25-34 98-82z"/>
<glyph glyph-name="cube-out" unicode="&#57402;" d="M393 363l-18-39 22-13-141-55-137 55 18 9-18 38-76-29 0-231 213-98 213 98 0 226z m-308-81l150-64 0-163-150 69z m192-227l0 163 150 64 0-158z m-119 363l30-30 47 43 0-120 42 0 0 128 52-42 25 30-98 85z"/>
<glyph glyph-name="cycle" unicode="&#57403;" d="M107 213c-30 0-56-12-76-31-19-19-31-46-31-75 0-30 12-56 31-76 20-19 46-31 76-31 29 0 56 12 75 31 19 20 31 46 31 76 0 29-12 56-31 75-19 19-46 31-75 31z m0-170c-18 0-34 7-46 18-11 12-18 28-18 46 0 17 7 33 18 45 12 11 28 19 46 19 17 0 33-8 45-19 12-12 19-28 19-45 0-18-7-34-19-46-12-11-28-18-45-18z m27 238c0 14 2 35 14 55 12 21 33 41 70 53 12-21 33-43 63-57 30-14 69-19 117-4l-7 21-6 20c-49-15-82-4-103 12-22 16-31 37-33 41l-7 18-18-5c-78-19-111-64-124-104-13-40-7-75-6-76l1-9 2-10 10 1 9 1c15 1 30-1 43-5 14-4 27-12 38-21 12-10 21-21 28-34 6-13 10-27 11-42l43 4c-2 20-7 40-17 57-9 18-21 34-37 47-13 11-27 20-43 26-15 6-31 10-48 11z m290-70l-7 35-8 35-41-9 13-62c-24-6-44-19-59-37-15-18-23-41-23-66 0-30 12-56 31-76 19-19 46-31 75-31 30 0 56 12 76 31 19 20 31 46 31 76 0 26-10 50-25 68-16 19-38 32-63 36z m-19-168c-17 0-33 7-45 18-12 12-19 28-19 46 0 17 7 33 19 45 12 11 28 19 45 19 18 0 34-8 46-19 11-12 18-28 18-45 0-18-7-34-18-46-12-11-28-18-46-18z m-66 344c17 0 33 7 44 18 11 11 18 27 18 44 0 18-7 33-18 45-11 11-27 18-44 18-18 0-33-7-45-18-11-12-18-27-18-45 0-17 7-33 18-44 12-11 27-18 45-18z m0 82c5 0 10-2 14-6 3-3 6-8 6-14 0-5-3-10-6-14-4-3-9-6-14-6-6 0-11 3-15 6-3 4-5 9-5 14 0 6 2 11 5 14 4 4 9 6 15 6z"/>
<glyph glyph-name="dashboard" unicode="&#57404;" d="M327 362l14 18 14 17c-16 7-32 12-48 15-17 3-34 5-51 5-71 0-135-29-181-75-46-46-75-110-75-181l42 0c0 59 24 112 63 151 39 39 92 63 151 63 12 0 24-1 36-3 12-2 24-6 35-10z m98-10l48 60-16 13-16 13-1 0 0 0-48-61-26-33-58-71-57-72-2-2 0 0c-2 0-4 1-7 1-2 0-4 0-7 0-17 0-33-7-45-18-11-12-18-27-18-45 0-17 7-33 18-45 12-11 28-18 45-18 18 0 33 7 45 18 11 12 18 28 18 45 0 7-1 14-3 21-3 6-6 12-10 18l57 71 58 72c21-19 39-43 51-70 12-27 19-57 19-88l42 0c0 38-8 74-23 107-15 32-37 61-64 84z m-190-236c-6 0-11 2-15 6-4 4-6 9-6 15 0 6 2 11 6 15 4 4 9 6 15 6 6 0 11-2 15-6 4-4 6-9 6-15 0-6-2-11-6-15-4-4-9-6-15-6z"/>
<glyph glyph-name="data-usage" unicode="&#57405;" d="M269 260l0 252-22 0c-136-4-247-115-247-256 0-141 115-256 256-256 132 0 247 102 256 239l0 21z m-13-217c-119 0-213 94-213 213 0 111 81 196 183 213l0-247 239 0c-17-103-107-179-209-179z"/>
<glyph glyph-name="developer-board" unicode="&#57406;" d="M512 384l0 43-43 0 0 34c0 30-21 51-51 51l-367 0c-30 0-51-21-51-51l0-410c0-30 21-51 51-51l367 0c30 0 51 21 51 51l0 77 43 0 0 43-43 0 0 42 43 0 0 43-43 0 0 43 43 0 0 42-43 0 0 43z m-85-333c0-4-5-8-9-8l-367 0c-4 0-8 4-8 8l0 410c0 4 4 8 8 8l367 0c4 0 9-4 9-8z m-342 205l128 0 0 171-128 0z m43 128l43 0 0-85-43 0z m-43-299l128 0 0 128-128 0z m43 86l43 0 0-43-43 0z m128-86l128 0 0 171-128 0z m43 128l42 0 0-85-42 0z m-43 86l128 0 0 128-128 0z m43 85l42 0 0-43-42 0z"/>
<glyph glyph-name="developer-mode" unicode="&#57407;" d="M384 171l-260 0 0 42-43 0 0-192c0-12 9-21 21-21l303 0c13 0 22 9 22 21l0 192-43 0z m-260-128l0 85 260 0 0-85z m0 426l260 0 0-42 43 0 0 64c0 12-9 21-22 21l-303 0c-12 0-21-9-21-21l0-64 43 0z m149-384c0 12-9 22-21 22-12 0-22-10-22-22 0-11 10-21 22-21 12 0 21 10 21 21z m-243 342l-30-34 81-69-81-68 30-30 119 98z m482-39l-30 34-119-102 119-98 30 30-81 68z"/>
<glyph glyph-name="diamond" unicode="&#57408;" d="M260 9l252 358-141 145-230 0-141-149 260-354-4-9z m-106 375l-77 0 60 64z m21 85l158 0-17-85-115 0z m200-21l60-64-77 0z m-72-107l-47-175-47 175z m43 0l98 0-154-213z m-278 0l98 0 56-217z"/>
<glyph glyph-name="dice" unicode="&#57409;" d="M427 512l-342 0c-47 0-85-38-85-85l0-342c0-47 38-85 85-85l342 0c47 0 85 38 85 85l0 342c0 47-38 85-85 85z m42-427c0-25-21-42-42-42l-342 0c-25 0-42 21-42 42l0 342c0 25 21 42 42 42l342 0c25 0 42-21 42-42z m-213 231c-34 0-60-26-60-60 0-34 26-60 60-60 34 0 60 26 60 60 0 34-26 60-60 60z m0-77c-9 0-17 8-17 17 0 9 8 17 17 17 9 0 17-8 17-17 0-9-8-17-17-17z m111 188c-30 0-60-26-60-60 0-34 26-60 60-60 34 0 60 26 60 60 0 34-26 60-60 60z m0-77c-9 0-17 8-17 17 0 8 8 17 17 17 8 0 17-9 17-17 0-9-9-17-17-17z m0-149c-34 0-60-26-60-60 0-34 30-56 60-56 34 0 60 26 60 60 0 34-26 56-60 56z m0-73c-9 0-17 9-17 17 0 9 8 17 17 17 8 0 17-8 17-17 0-8-9-17-17-17z m-222 73c-34 0-60-26-60-56 0-30 26-60 60-60 34 0 60 26 60 60 0 34-30 56-60 56z m0-73c-8 0-17 9-17 17 0 9 9 17 17 17 9 0 17-8 17-17 0-8-8-17-17-17z m0 179c34 0 60 26 60 60-4 34-30 60-60 60-34 0-60-26-60-60 0-30 26-60 60-60z m0 77c9 0 17-9 17-17 0-9-8-17-17-17-8 0-17 8-17 17 0 8 9 17 17 17z"/>
<glyph glyph-name="dining" unicode="&#57410;" d="M329 294c12-8 29-12 46-12 22 0 47 8 64 25l47 51c17 17 26 39 26 64 0 26-9 47-26 64-34 35-93 35-128 0l-47-51c-29-30-34-77-12-111l-43-42-34 34c21 38 17 89-17 119l-77 77-30-30 77-72c17-17 21-39 13-60l-107 107-30-35 107-102c-17-4-39 0-51 13l-77 77-30-35 77-72c17-17 42-30 68-30 17 0 30 4 47 13l34-34-217-222 29-30 218 222 226-222 30 30-226 222z m12 111l47 52c9 8 22 12 34 12 13 0 26-4 35-12 8-9 12-22 12-35 0-12-4-25-12-34l-52-51c-17-17-47-17-64 0-17 21-17 51 0 68z"/>
<glyph glyph-name="direction" unicode="&#57411;" d="M482 427l-31 42-173 0 0 43-44 0 0-43-152 0 0-170 152 0 0-43-173 0-31-43-15-21-15-22 15-21 15-21 31-43 173 0 0-85 44 0 0 85 152 0 0 171-152 0 0 43 173 0 31 42 15 22 15 21-15 21z m-96-257l0-42-303 0-7 10-15 22-8 10 15 22 15 21 303 0z m58 193l-8-11-7-11-303 0 0 86 303 0 7-11 8-11 8-10 7-11-7-11z"/>
<glyph glyph-name="disk" unicode="&#57412;" d="M256 512c-141 0-256-115-256-256 0-141 115-256 256-256 141 0 256 115 256 256 0 141-115 256-256 256z m0-461c-115 0-205 94-205 205 0 111 90 205 205 205 115 0 205-94 205-205 0-111-90-205-205-205z m98 205c0 55-43 98-98 98-55 0-98-43-98-98 0-55 43-98 98-98 55 0 98 43 98 98z m-98-47c-26 0-47 21-47 47 0 26 21 47 47 47 26 0 47-21 47-47 0-26-21-47-47-47z m62-46l37 36 36-36-36-37z m-200 196l37 36 36-36-36-36z"/>
<glyph glyph-name="domain" unicode="&#57413;" d="M422 294c2-6 3-12 4-19 0-6 1-12 1-19 0-47-19-90-50-121-31-31-74-50-121-50-6 0-13 1-19 1-6 1-13 2-19 4-6 1-13 3-19 5-7 2-13 5-19 8l-19-38c8-4 16-7 23-10 8-3 16-5 25-7 7-2 15-3 23-4 8-1 16-1 24-1 59 0 112 24 151 62 38 39 62 92 62 151 0 8 0 16-1 24-1 8-2 16-4 24l-21-5z m-332-75c-2 6-3 12-4 18 0 6-1 13-1 19 0 47 19 90 50 121 31 31 74 50 121 50 6 0 13-1 19-1 7-1 13-2 19-4 7-1 13-3 20-5 6-3 13-6 19-9l10 19 9 19c-7 4-15 8-24 11-8 3-16 5-25 7-7 2-15 3-23 4-8 1-16 1-24 1-59 0-112-24-151-62-38-39-62-92-62-151 0-8 0-16 1-24 1-7 2-15 4-23l21 5z m102 15l128 0c6 0 11 2 15 6 4 4 6 9 6 15 0 6-2 11-6 15-4 4-9 7-15 7l-128 0c-6 0-11-3-15-7-4-4-6-9-6-15 0-6 2-11 6-15 4-4 9-6 15-6z m299 149l-235 0c-6 0-11-2-15-6-4-4-6-9-6-15 0-6 2-11 6-15 4-4 9-6 15-6l235 0c6 0 11 2 15 6 4 4 6 9 6 15 0 6-2 11-6 15-4 4-9 6-15 6z m-214-233c0 6-2 11-6 15-4 4-9 6-15 6l-235 0c-6 0-11-2-15-6-4-4-6-9-6-15 0-6 2-11 6-15 4-4 9-6 15-6l235 0c6 0 11 2 15 6 4 4 6 9 6 15z"/>
<glyph glyph-name="double-arrows-bottom" unicode="&#57414;" d="M512 486l-34 26-222-273-222 273-34-26 256-315z m0-170l-34 25-222-273-222 273-34-25 256-316z"/>
<glyph glyph-name="double-arrows-left" unicode="&#57415;" d="M512 34l-273 222 273 222-26 34-315-256 315-256z m-171 0l-273 222 273 222-25 34-316-256 316-256z"/>
<glyph glyph-name="double-arrows-right" unicode="&#57416;" d="M30 512l-30-34 273-222-273-222 30-34 311 256z m171 0l-30-34 273-222-273-222 30-34 311 256z"/>
<glyph glyph-name="double-arrow-stop" unicode="&#57417;" d="M0 26l34-26 222 273 222-273 34 26-256 315z m0 170l34-25 222 273 222-273 34 25-256 316z"/>
<glyph glyph-name="download" unicode="&#57418;" d="M256 110c3 0 5 0 8 1 3 2 5 3 7 5l136 142-15 16-15 16-50-53-50-52-3 327-21 0-22 0 2-163 1-163-49 52-50 51-15-15-15-16 68-71 68-71c2-2 4-3 7-5 3-1 5-1 8-1z m213 157l0-222-426 0 0 222-43 0 0-267 512 0 0 267z"/>
<glyph glyph-name="drop-down" unicode="&#57419;" d="M256 94l256 324-512 0z"/>
<glyph glyph-name="drop-up" unicode="&#57420;" d="M256 418l-256-324 512 0z"/>
<glyph glyph-name="drum" unicode="&#57421;" d="M511 314c-1 18-9 34-24 49-14 15-35 28-62 38l40 41 41 40-15 15-15 15-79-78-78-78c0 0-1 0-2 0 0 1-1 1-1 1-11 0-20-4-27-11-7-7-12-17-12-28 0-10 5-20 12-27 7-7 16-11 27-11 10 0 20 4 27 11 7 7 11 17 11 27 0 2 0 4-1 6 0 1-1 3-1 5l20 19 20 20c23-8 43-17 56-27 14-11 21-21 21-32 0-16-20-36-57-51-37-16-90-27-156-27-66 0-119 11-156 27-37 15-57 35-57 51 0 10 7 20 19 30 12 10 29 19 51 26l26-26 26-26c0-1-1-2-1-3 0-1 0-2 0-4 0-10 4-20 11-27 7-7 16-11 27-11 10 0 20 4 27 11 7 7 11 17 11 27 0 11-4 20-11 27-7 7-17 12-27 12-1 0-2-1-4-1-1 0-2-1-3-1l-17 18-18 17c24 4 44 7 65 9 21 1 42 1 68 0l10 20 10 19c-33 4-66 5-98 2-32-2-62-7-90-14l-47 46-46 45-30-30 39-38 39-39c-25-10-44-23-57-37-13-14-21-30-22-47l-1 0 0-193c0-35 28-65 73-86 46-22 110-35 183-35 73 0 137 13 183 35 45 21 73 51 73 86l0 193z m-255-271c-66 0-119 11-156 26-37 16-57 35-57 52l0 120c22-16 53-29 89-38 36-9 78-15 124-15 46 0 88 6 124 15 36 9 67 22 89 38l0-120c0-17-20-36-57-52-37-15-90-26-156-26z"/>
<glyph glyph-name="earphone" unicode="&#57422;" d="M371 512l-72 0 0-34-201 0c-55 0-98-43-98-98l0-320 85 0 0-60 43 0 0 60 85 0 0 196 86 0 0-43 72 0c77 0 141 64 141 150 0 85-64 149-141 149z m-200-410l-128 0 0 278c0 30 25 55 55 55l73 0z m42 197l0 136 86 0 0-136z m158-43l-30 0 0 213 30 0c56 0 98-47 98-106 0-60-42-107-98-107z"/>
<glyph glyph-name="edit" unicode="&#57423;" d="M367 512l-346-350-21-162 162 17 350 350z m85-145l-47-47-85 85 47 47z m-311-312l-94-8 13 98 230 230 85-85z m115-8l256 0 0-43-256 0z"/>
<glyph glyph-name="edit-s" unicode="&#57424;" d="M469 256l0-213-426 0 0 426 256 0 0 43-299 0 0-512 512 0 0 256z m-384-166l137 12 281 282-119 119-282-277z m359 294l-30-30-60 60 30 30z m-299-179l179 179 60-60-179-183-68-4z"/>
<glyph glyph-name="eject" unicode="&#57425;" d="M256 512l-256-337 508 0z m0-73l166-226-337 0z m-256-311l0-128 512 0 0 128z m469-85l-426 0 0 42 426 0z"/>
<glyph glyph-name="encryption" unicode="&#57426;" d="M235 277l-52 86-123 0-60-107 60-107 123 0 52 86 277 0 0 42z m-73-85l-77 0-34 64 34 64 73 0 38-64z m222 0l128 0 0-43-128 0z"/>
<glyph glyph-name="envelope" unicode="&#57427;" d="M34 427l-34 0 0-342 512 0 0 342z m397-43l-175-137-171 137z m-388-256l0 235 209-171 217 166 0-230z"/>
<glyph glyph-name="envelope-letter" unicode="&#57428;" d="M491 341l-64 0 0 171-342 0 0-171-85 0 0-341 512 0 0 341z m-448-59l119-107-119-107z m158-128l110 0 124-111-358 0z m149 21l119 107 0-214z m34 294l0-209-73-64-106 0-77 64 0 209z m-213-42l170 0 0-43-170 0z m0-86l170 0 0-42-170 0z"/>
<glyph glyph-name="envelope-check" unicode="&#57429;" d="M508 388l-124 0 0-42 73 0-201-171-209 171 81 0 0 42-128 0 0-367 512 0z m-39-320l-426 0 0 226 213-175 213 180z m-209 214l-89 64 25 34 51-39 116 162 34-25z"/>
<glyph glyph-name="envelope-cross" unicode="&#57430;" d="M179 358l30-29 47 42 47-42 30 29-47 43 47 47-30 30-47-47-47 47-30-30 47-47z m329 30l-124 0 0-42 73 0-201-171-209 171 81 0 0 42-128 0 0-367 512 0z m-39-320l-426 0 0 226 213-175 213 180z"/>
<glyph glyph-name="envelope-open" unicode="&#57431;" d="M512 337l-256 175-256-175 0-337 512 0z m-43-269l-115 103 115 98z m-268 81l110 0 124-106-358 0z m-128 188l183 124 183-124 26-17-30-26-124-102-106 0-115 102-35 30z m89-162l-119-107 0 214z"/>
<glyph glyph-name="envelope-plus" unicode="&#57432;" d="M235 316l42 0 0 64 64 0 0 42-64 0 0 64-42 0 0-64-64 0 0-42 64 0z m273 72l-124 0 0-42 73 0-201-171-209 171 81 0 0 42-128 0 0-367 512 0z m-39-320l-426 0 0 226 213-175 213 180z"/>
<glyph glyph-name="equalizer" unicode="&#57433;" d="M0 55l102 0 0-55-102 0z m0 116l102 0 0-56-102 0z m0 111l102 0 0-56-102 0z m0 115l102 0 0-56-102 0z m410-342l102 0 0-55-102 0z m0 116l102 0 0-56-102 0z m0 115l102 0 0-56-102 0z m-205-231l102 0 0-55-102 0z m0 116l102 0 0-56-102 0z m0 115l102 0 0-56-102 0z m0 115l102 0 0-55-102 0z m0 111l102 0 0-55-102 0z"/>
<glyph glyph-name="eraser" unicode="&#57434;" d="M512 43l-277 0 243 243c34 34 34 85 0 124l-90 76c-34 35-85 35-119 0l-243-247c-35-34-35-85 0-120l115-119 371 0z m-213 414c8 8 17 12 30 12 12 0 21-4 29-12l90-77c17-17 17-43 0-60l-115-119-145 145z m-141-414l-103 106c-17 17-17 43 0 60l103 102 145-140-128-128z"/>
<glyph glyph-name="exchange" unicode="&#57435;" d="M303 243l81-85-384 0 0-43 384 0-85-85 30-30 140 137-136 136z m-179 154l81 85-30 30-132-137 132-132 30 30-81 81 388 0 0 43z"/>
<glyph glyph-name="exclamation" unicode="&#57436;" d="M317 171l25 170 24 171-220 0 25-171 25-170z m0 298l-37-256-47 0-19 128-19 128z m-61-334c-18 0-35-8-47-20-12-12-20-29-20-48 0-18 8-35 20-47 12-12 29-20 47-20 19 0 36 8 48 20 12 12 20 29 20 47 0 19-8 36-20 48-12 12-29 20-48 20z m0-92c-6 0-12 2-17 7-4 4-7 11-7 17 0 7 3 13 7 18 5 4 11 7 17 7 7 0 13-3 18-7 4-5 7-11 7-18 0-6-3-13-7-17-5-5-11-7-18-7z"/>
<glyph glyph-name="exclamation-o" unicode="&#57437;" d="M235 214l42 0 0 174-42 0z m0-86l42 0 0 43-42 0z m21 384c-71 0-135-29-181-75-46-46-75-110-75-181 0-71 29-135 75-181 46-46 110-75 181-75 71 0 135 29 181 75 46 46 75 110 75 181 0 71-29 135-75 181-46 46-110 75-181 75z m0-469c-59 0-112 24-151 62-38 39-62 92-62 151 0 59 24 112 62 151 39 38 92 62 151 62 59 0 112-24 151-62 38-39 62-92 62-151 0-59-24-112-62-151-39-38-92-62-151-62z"/>
<glyph glyph-name="exit" unicode="&#57438;" d="M205 154l30-30 132 132-132 132-30-30 81-81-286 0 0-42 286 0z m-205 358l0-175 43 0 0 132 426 0 0-426-426 0 0 128-43 0 0-171 512 0 0 512z"/>
<glyph glyph-name="export" unicode="&#57439;" d="M499 299l-145 115-25-30 102-85-341 0 93 72-25 34-137-106-21 0 0-299 512 0 0 299z m-30-256l-426 0 0 213 426 0z m-106 170l42 0 0-128-42 0z m-128 0l42 0 0-128-42 0z m-128 0l42 0 0-128-42 0z m145 124c38 0 68 30 68 68l-43 0c0-12-12-25-25-25-13 0-26 13-26 25 0 13 13 22 26 22l21 0 0 85-43 0 0-47c-25-8-42-34-42-64 0-34 30-64 64-64z"/>
<glyph glyph-name="external-link" unicode="&#57440;" d="M162 196l26-30 281 269 0-136 43 0 0 213-213 0 0-43 145 0z m307 17l0-170-426 0 0 341 170 0 0 43-213 0 0-427 512 0 0 213z"/>
<glyph glyph-name="eye-off" unicode="&#57441;" d="M265 129c-19-1-37 1-55 6-18 5-36 13-54 24-18 10-36 24-53 40-18 16-36 35-53 57 6 9 15 20 27 33 12 13 26 27 43 41 6 4 12 8 18 12 6 4 12 8 18 12l-23 35c-14-8-27-17-38-26-12-9-22-18-32-28-19-18-34-36-44-50-10-13-15-22-15-22l-2-5-1-3-1-3 3-4 2-2 2-3c19-26 39-49 60-68 20-19 40-36 61-49 21-13 42-23 63-29 21-7 43-10 65-10 2 0 5 0 8 0 3 0 5 0 8 0 3 1 6 1 9 1 2 1 5 1 8 2 6 1 13 2 19 3 7 2 13 4 19 6l-12 18-12 18c-6-1-13-3-19-4-6-1-13-1-19-2z m-77 177c-5-7-9-15-12-23-3-9-4-18-4-27 0-12 2-23 6-33 4-10 11-19 18-27 8-7 17-14 27-18 10-4 21-6 33-6 4 0 7 0 11 0 3 1 6 1 9 2l-26 41c-5 0-9 1-13 3-4 2-8 5-11 8-4 4-7 9-9 14-2 5-3 10-3 16 0 2 0 3 0 5 0 2 1 3 1 5l-13 20z m321-42l-2 2-2 3c-22 29-45 54-67 75-23 21-47 38-70 51-24 13-47 22-72 26-24 5-48 5-73 1-1 0-3 0-5 0-1-1-3-1-4-2l-48 71-17-12-18-12 0 0 20-30 20-29 24-36 26-39 12-18 12-18 44-67 12-18 13-18 29-43 11-18 12-17 47-71 1 0 0 0 17 12 18 12-23 34-23 35c9 6 17 12 24 19 8 6 15 13 22 19 19 19 34 37 44 50 10 14 15 23 15 23l2 5 1 3 1 2-2 3z m-117-82c-2-1-4-3-6-5-2-1-5-3-7-4l-20 31-21 31c1 4 1 7 2 10 0 4 0 7 0 11 0 12-2 23-6 33-4 10-11 19-18 27-7 6-14 11-22 16-8 4-17 6-26 8l-15 21-14 21c2 0 3 0 4 0 2 1 3 1 4 1 19 1 37-1 55-6 18-5 36-13 53-24 18-10 36-24 54-40 18-16 36-36 53-58-6-8-15-19-27-32-12-13-26-27-43-41z"/>
<glyph glyph-name="eye-on" unicode="&#57442;" d="M505 269c-44 58-90 100-137 126-47 26-95 35-145 27-67-10-122-49-160-86-38-38-59-72-59-73l-2-5-2-6 7-9c39-52 80-91 121-117 42-26 84-39 127-39 6 0 12 0 17 1 6 0 11 1 17 2 67 10 122 49 160 86 38 37 59 72 59 73l2 5 2 6-3 4z m-241-140c-36-1-72 8-108 30-36 21-71 54-106 98 12 16 36 46 71 73 34 27 77 50 127 53 36 1 72-8 108-30 35-21 71-54 106-98-12-16-36-46-70-73-35-27-78-50-128-53z m-8 211c-23 0-44-9-60-24-15-16-24-37-24-60 0-23 9-44 24-60 16-15 37-25 60-25 23 0 44 10 60 25 15 16 25 37 25 60 0 23-10 44-25 60-16 15-37 24-60 24z m0-126c-12 0-22 4-30 12-8 8-12 18-12 30 0 12 4 22 12 30 8 8 18 12 30 12 12 0 22-4 30-12 8-8 12-18 12-30 0-12-4-22-12-30-8-8-18-12-30-12z"/>
<glyph glyph-name="factory" unicode="&#57443;" d="M230 213l-42 299-120 0-42-299-26 0 0-213 512 0 0 213z m-128 256l47 0 39-256-120 0z m367-426l-426 0 0 128 426 0z m-170 256l170 0 0-43-170 0z m-171-171l43 0 0-43-43 0z m128 0l43 0 0-43-43 0z m128 0l43 0 0-43-43 0z"/>
<glyph glyph-name="file" unicode="&#57444;" d="M256 128l128 0 0-43-128 0z m77 384l-290 0 0-512 426 0 0 380z m8-64l64-64-64 0z m-256-405l0 426 214 0 0-128 128 0 0-298z m43 270l103 0 0-42-103 0z m0-92l205 0 0-43-205 0z m0-93l256 0 0-43-256 0z"/>
<glyph glyph-name="file-code" unicode="&#57445;" d="M188 294l-30-34 68-64-68-77 30-25 98 102z m68-166l128 0 0-43-128 0z m77 384l-290 0 0-512 426 0 0 380z m8-64l64-64-64 0z m-256-405l0 426 214 0 0-128 128 0 0-298z"/>
<glyph glyph-name="file-download" unicode="&#57446;" d="M350 175l-30 30-43-43 0 145-42 0 0-149-47 38-30-30 98-81z m-17 337l-290 0 0-512 426 0 0 380z m8-64l64-64-64 0z m-256-405l0 426 214 0 0-128 128 0 0-298z"/>
<glyph glyph-name="file-empty" unicode="&#57447;" d="M333 512l-290 0 0-512 426 0 0 380z m8-64l64-64-64 0z m-256-405l0 426 214 0 0-128 128 0 0-298z"/>
<glyph glyph-name="file-group" unicode="&#57448;" d="M363 427l-235 0 0-427 341 0 0 316z m4-69l34-34-34 0z m-196-315l0 341 153 0 0-102 103 0 0-239z m81 469l-209 0 0-341 42 0 0 298 167 0z"/>
<glyph glyph-name="file-horizontal" unicode="&#57449;" d="M380 469l-380 0 0-426 512 0 0 290z m4-64l64-64-64 0z m-341-320l0 342 298 0 0-128 128 0 0-214z m42 204l214 0 0-42-214 0z m0-101l337 0 0-43-337 0z"/>
<glyph glyph-name="file-horizontal-group" unicode="&#57450;" d="M512 401l-111 111-316 0 0-209-85 0 0-303 427 0 0 81 85 0z m-102 47l38-38-38 0z m-26-405l-341 0 0 217 42 0 0-175 299 0z m-256 81l0 345 239 0 0-102 102 0 0-239-341 0z m43 199l256 0 0-43-256 0z m0-93l256 0 0-42-256 0z"/>
<glyph glyph-name="file-minus" unicode="&#57451;" d="M333 512l-290 0 0-512 426 0 0 380z m8-64l64-64-64 0z m-256-405l0 426 214 0 0-128 128 0 0-298z m64 170l214 0 0-42-214 0z"/>
<glyph glyph-name="file-photo" unicode="&#57452;" d="M128 171l149 0-72 85z m149 0l107 0-55 42z m22 106c0-11-10-21-22-21-11 0-21 10-21 21 0 12 10 22 21 22 12 0 22-10 22-22z m34 235l-290 0 0-512 426 0 0 380z m8-64l64-64-64 0z m-256-405l0 426 214 0 0-128 128 0 0-298z"/>
<glyph glyph-name="file-plus" unicode="&#57453;" d="M277 299l-42 0 0-86-86 0 0-42 86 0 0-86 42 0 0 86 86 0 0 42-86 0z m56 213l-290 0 0-512 426 0 0 380z m8-64l64-64-64 0z m-256-405l0 426 214 0 0-128 128 0 0-298z"/>
<glyph glyph-name="file-upload" unicode="&#57454;" d="M333 512l-290 0 0-512 426 0 0 380z m8-64l64-64-64 0z m-256-405l0 426 214 0 0-128 128 0 0-298z m73 170l30-30 47 43 0-141 38 0 0 145 51-38 26 34-98 81z"/>
<glyph glyph-name="file-video" unicode="&#57455;" d="M192 128l141 107-141 106z m141 384l-290 0 0-512 426 0 0 380z m8-64l64-64-64 0z m-256-405l0 426 214 0 0-128 128 0 0-298z"/>
<glyph glyph-name="file-search" unicode="&#57456;" d="M85 469l214 0 0-128 128 0 0-170 42 0 0 209-136 132-290 0 0-512 256 0 0 43-214 0z m252-21l64-64-64 0z m128-405l-90 89c9 17 18 39 18 60 0 60-47 107-107 107-60 0-107-47-107-107 0-60 47-107 107-107 21 0 43 9 60 17l89-89c4-4 9-4 17-4 5 0 13 0 17 4 5 8 5 21-4 30z m-243 149c0 34 30 64 64 64 34 0 64-30 64-64 0-34-30-64-64-64-34 0-64 30-64 64z"/>
<glyph glyph-name="film-roll" unicode="&#57457;" d="M512 256c0 71-29 135-75 181-46 46-110 75-181 75-71 0-135-29-181-75-46-46-75-110-75-181 0-44 11-86 31-123 21-36 49-67 84-90l-115 0 0-43 270 0 0 1c68 3 128 33 172 79 43 46 70 108 70 176z m-256-213c-59 0-112 24-151 62-38 39-62 92-62 151 0 59 24 112 62 151 39 38 92 62 151 62 59 0 112-24 151-62 38-39 62-92 62-151 0-59-24-112-62-151-39-38-92-62-151-62z m-87 356c-18 0-34-7-46-19-12-12-19-28-19-46 0-18 7-35 19-47 12-11 28-19 46-19 18 0 35 8 46 19 12 12 20 29 20 47 0 18-8 34-20 46-11 12-28 19-46 19z m0-88c-6 0-12 2-16 7-4 4-6 9-6 16 0 6 2 12 6 16 4 4 10 6 16 6 7 0 12-2 16-6 4-4 7-10 7-16 0-7-3-12-7-16-4-5-9-7-16-7z m178-43c18 0 34 8 46 19 12 12 20 29 20 47 0 18-8 34-20 46-12 12-28 19-46 19-18 0-34-7-46-19-12-12-19-28-19-46 0-18 7-35 19-47 12-11 28-19 46-19z m0 88c6 0 12-2 16-6 4-4 7-10 7-16 0-7-3-12-7-16-4-5-10-7-16-7-6 0-12 2-16 7-4 4-7 9-7 16 0 6 3 12 7 16 4 4 10 6 16 6z m-178-112c-18 0-34-8-46-19-12-12-19-29-19-47 0-18 7-34 19-46 12-12 28-19 46-19 18 0 35 7 46 19 12 12 20 28 20 46 0 18-8 35-20 47-11 11-28 19-46 19z m0-88c-6 0-12 2-16 6-4 4-6 10-6 16 0 7 2 12 6 16 4 5 10 7 16 7 7 0 12-2 16-7 4-4 7-9 7-16 0-6-3-12-7-16-4-4-9-6-16-6z m178 88c-18 0-34-8-46-19-12-12-19-29-19-47 0-18 7-34 19-46 12-12 28-19 46-19 18 0 34 7 46 19 12 12 20 28 20 46 0 18-8 35-20 47-12 11-28 19-46 19z m0-88c-6 0-12 2-16 6-4 4-7 10-7 16 0 7 3 12 7 16 4 5 10 7 16 7 6 0 12-2 16-7 4-4 7-9 7-16 0-6-3-12-7-16-4-4-10-6-16-6z"/>
<glyph glyph-name="filter" unicode="&#57458;" d="M465 478c-5 11-12 19-21 25-9 6-20 9-31 9l-314 0c-11 0-22-3-31-9-9-6-16-15-21-25-4-10-6-22-4-32 2-11 6-21 14-29l68-75 67-76 0-266 64 48 64 48 0 170 67 75 68 76 0 0 0 0c8 8 12 19 14 29 2 11 0 22-4 32z m-42-33l-73-81-73-82 0-165-21-16-21-16 0 198-73 81-73 81c-3 3-4 7-4 9 0 3 1 5 1 7 1 1 2 3 4 5 2 2 5 3 9 3l314 0c4 0 7-1 9-3 2-2 3-4 4-5 0-1 1-3 1-6 0-3-1-7-4-10z"/>
<glyph glyph-name="flag" unicode="&#57459;" d="M85 0l-42 0 0 512 426 0-149-149 149-150-384 0z m0 256l282 0-107 107 107 106-282 0z"/>
<glyph glyph-name="flag-triangle" unicode="&#57460;" d="M43 512l0-512 42 0 0 158 384 162z m42-68l278-124-278-119z"/>
<glyph glyph-name="flame" unicode="&#57461;" d="M395 337c-3 3-6 5-10 6-4 1-8 1-12 0-3-2-7-4-9-7-3-3-4-7-5-11-1-7-5-14-10-19-6-4-13-7-21-7-4 0-7 1-10 3-3 2-4 4-6 6-2 3-3 6-4 9-1 3-1 5 0 6 7 24 11 46 10 67-1 20-7 39-16 56-14 25-34 41-52 51-17 10-31 14-32 14-4 1-9 1-13 0-4-2-8-5-10-9-3-3-4-8-4-12 0-4 2-9 5-12 6-9 14-21 19-33 5-13 8-24 6-32 0-1-1-3-2-4-1-2-4-3-8-5-17-6-29-14-37-23-8-8-13-17-16-25-5-15-5-30-3-42 3-13 7-24 10-31-1-4-3-7-6-10-3-2-7-4-11-4-5 0-10 2-13 6-4 4-5 9-5 15 1 5 0 10-3 14-2 4-6 8-10 10-5 2-10 2-15 0-4-1-8-4-11-8-11-16-19-34-24-52-6-18-8-37-8-57 0-54 22-103 57-139 36-36 86-58 140-58 54 0 104 22 140 58 35 36 57 85 57 139 0 27-5 53-15 76-9 24-24 46-43 64z m-139-294c-43 0-81 17-109 45-28 28-46 67-46 109 0 8 1 15 2 23 1 7 3 15 5 22 5-5 11-9 18-11 7-3 14-4 22-4 16 0 31 7 42 18 12 11 18 26 18 42 0 2 0 4 0 6-1 2-2 4-3 5 0 0-3 7-6 15-2 9-4 19-1 29 2 5 5 9 10 13 4 3 10 6 17 9 12 4 21 10 26 17 6 7 9 14 11 20 1 4 2 8 2 13 1 4 0 8 0 13 0 0 0-1 0-1 0 0 1 0 1 0 6-12 10-26 10-40 0-15-2-32-8-50-3-8-3-17-1-27 2-9 6-18 12-26 13-18 33-26 54-25 20 0 40 10 53 25 8-13 15-26 19-41 5-14 7-29 7-45 0-42-18-81-46-109-28-28-66-45-109-45z"/>
<glyph glyph-name="flash-off" unicode="&#57462;" d="M443 325c0 2 0 4 0 6 0 2-1 4-2 6-1 2-2 4-3 5-1 2-3 3-5 4-1 2-3 2-5 3-2 1-4 1-6 1l-81 0 18 33 19 32 18 33 18 32c1 2 2 4 3 5 0 2 0 4 0 6 0 2 0 4-1 5 0 2-1 4-2 5-1 2-2 4-3 5-2 1-3 2-4 3-2 1-4 2-6 2-1 1-3 1-5 1l-159 0c-2 0-4 0-6-1-1 0-3-1-5-2-1-1-3-2-4-3-1-1-2-3-4-5l-16-27-16-28-18 27-18 28-18-12-18-12 1 0 0 0 24-36 24-36 26-40 50-73 49-74 12-18 12-18 85-127 0 0 0 0 18 12 17 12-45 67-45 68 48 50 47 50c2 2 3 3 4 5 1 2 1 4 2 6z m-125-75l-105 157 18 31 18 31 110 0-36-65-19-32-18-33c-1-2-2-3-2-5-1-2-1-4-1-5 0-2 0-4 1-6 0-2 1-3 2-5 1-2 2-3 3-5 2-1 3-2 5-3 1-1 3-2 5-2 1-1 3-1 5-1l68 0-27-28z m-143-150l19 65 10 33 9 32c1 2 1 4 1 5 0 2 0 4 0 5 0 2-1 4-2 5 0 2-1 3-2 4-1 2-2 3-4 4-1 1-2 2-4 3-1 0-3 1-4 1-2 0-3 1-5 1l-66 0 39 67-26 39-34-58-34-59c-1-1-2-3-2-5-1-2-1-4-1-6 0-1 0-3 1-5 0-2 1-4 2-5 1-2 2-3 3-5 2-1 3-2 5-3 1-1 3-2 5-2 2-1 4-1 5-1l74 0-13-47-14-47-27-94c-1-2-1-4-1-7 0-2 1-5 2-7 1-2 2-4 3-6 2-1 4-3 6-4 1-1 2-1 2-1 1-1 2-1 3-1 1 0 2-1 3-1 1 0 2 0 3 0 1 0 2 0 4 0 1 1 2 1 4 2 1 0 2 1 4 2 1 1 2 2 3 3l68 72 68 72-24 36z"/>
<glyph glyph-name="flash-on" unicode="&#57463;" d="M441 337c-1 4-4 7-8 9-3 3-7 4-11 4l-81 0 73 130c2 3 3 7 3 11 0 3-1 7-3 10-2 4-4 6-8 8-3 2-6 3-10 3l-159 0c-4 0-7-1-11-3-3-2-6-4-7-8l-147-254c-2-3-3-7-3-11 0-3 1-7 3-10 2-3 4-6 8-8 3-2 6-3 10-3l74 0-27-94-27-94c-1-4-1-9 1-14 1-4 5-8 9-10 2-1 3-2 5-2 2-1 4-1 5-1 3 0 6 1 9 2 2 1 5 2 7 5l146 153 145 154c3 3 5 7 6 11 0 4 0 8-2 12z m-266-237l19 65 19 66c1 3 1 6 1 9-1 4-2 7-4 9-2 3-5 5-8 7-3 1-6 2-9 2l-66 0 61 106 61 105 110 0-36-65-37-65c-2-3-3-7-3-11 0-3 1-7 3-10 2-3 5-6 8-8 3-2 7-3 10-3l68 0-98-104z"/>
<glyph glyph-name="folder" unicode="&#57464;" d="M427 341l0 86-222 0-30 42-175 0 0-362c0-39 34-69 68-64l444 0 0 298z m-342-234c0-13-8-22-21-22-13 0-21 9-21 22l0 320 111 0 29-43 201 0 0-43-299 0z m384-22l-345 0c4 9 4 13 4 22l0 192 341 0z"/>
<glyph glyph-name="folder-open" unicode="&#57465;" d="M133 342l-23-116-23-116c-3-13-7-19-12-23-4-3-8-3-10-3-6 0-12 3-16 7-4 4-6 9-6 15l0 322 111 0 15-21 14-22 225 0 0 43-202 0-14 22-15 21-177 0 0-365c0-19 8-36 21-48 13-11 30-18 48-17l197 0 196 0 25 151 25 150z m292-258l-301 0c1 3 2 6 3 9 0 3 1 6 2 9l20 98 19 99 293 0-18-107z"/>
<glyph glyph-name="folder-video" unicode="&#57466;" d="M512 43l-444 0c-34-5-68 25-68 64l0 362 175 0 30-42 222 0 0-86 85 0z m-388 42l345 0 0 214-341 0 0-192c0-9 0-13-4-22z m-81 342l0-320c0-13 8-22 21-22 13 0 21 9 21 22l0 234 299 0 0 43-201 0-29 43z m213-171l0-128 85 64z"/>
<glyph glyph-name="folder-photo" unicode="&#57467;" d="M427 341l0 86-222 0-30 42-175 0 0-362c0-39 34-69 68-64l444 0 0 298z m-342-234c0-13-8-22-21-22-13 0-21 9-21 22l0 320 111 0 29-43 201 0 0-43-299 0z m384-22l-345 0c4 9 4 13 4 22l0 192 341 0z m-98 86l-51-43 107 0z m-124 42l-76-85 149 0z m94 22c0-12-9-22-21-22-12 0-21 10-21 22 0 11 9 21 21 21 12 0 21-10 21-21z"/>
<glyph glyph-name="food" unicode="&#57468;" d="M0 256l0-21c0-124 119-235 256-235 137 0 256 111 256 235l0 21z m256-213c-111 0-201 85-213 170l426 0c-12-85-102-170-213-170z m252 435l-30 30-196-197 34-29z m-235 8l-34 26-107-128 34-30z m-4-140c0-19-15-35-34-35-19 0-34 16-34 35 0 18 15 34 34 34 19 0 34-16 34-34z"/>
<glyph glyph-name="fork" unicode="&#57469;" d="M427 171c-7 0-13-1-19-2-6-2-12-4-17-6-5-3-11-6-15-10-5-3-9-7-13-12l-39 21-77 42-39 21c1 3 2 5 2 8 1 2 2 5 2 7 0 3 1 5 1 8 0 3 0 5 0 8 0 3 0 6 0 8 0 3-1 6-1 9-1 2-1 5-2 8-1 3-1 5-2 8l76 42 39 21 38 21c4-5 8-9 13-13 5-4 10-7 16-10 5-3 11-5 17-6 7-2 13-3 20-3 11 0 23 3 33 7 10 4 19 11 27 18 8 8 14 17 18 28 5 10 7 21 7 33 0 11-2 23-7 33-4 10-10 19-18 27-8 8-17 14-27 18-10 5-22 7-33 7-12 0-23-2-34-7-10-4-19-10-27-18-7-8-14-17-18-27-4-10-7-22-7-33 0-2 0-3 0-4 1-1 1-3 1-4 0-1 0-2 0-4 0-1 1-2 1-3l-39-22-117-64c-5 5-11 11-17 15-6 5-12 8-19 12-6 3-14 5-21 7-8 2-15 3-23 3-15 0-29-3-42-9-13-5-24-13-34-23-9-9-17-21-23-34-5-12-8-26-8-41 0-15 3-29 8-42 6-12 14-24 23-33 10-10 21-18 34-23 13-6 27-9 42-9 8 0 16 1 23 3 8 2 15 4 22 8 7 3 14 7 20 12 6 5 11 10 16 16l39-21 116-64c0-1 0-3-1-4 0-2 0-3 0-5 0-1 0-3-1-4 0-2 0-3 0-5 0-11 3-23 7-33 4-10 11-19 18-27 8-8 17-14 27-18 11-5 22-7 34-7 11 0 23 2 33 7 10 4 19 10 27 18 8 8 14 17 18 27 5 10 7 22 7 33 0 12-2 23-7 33-4 11-10 20-18 28-8 7-17 14-27 18-10 4-22 7-33 7z m0 298c6 0 11-1 16-3 5-2 10-5 14-9 4-4 7-9 9-14 2-5 3-10 3-16 0-6-1-12-3-17-2-5-5-10-9-13-4-4-9-7-14-10-5-2-10-3-16-3-6 0-12 1-17 3-5 3-10 6-13 10-4 3-7 8-10 13-2 5-3 11-3 17 0 6 1 11 3 16 3 5 6 10 10 14 3 4 8 7 13 9 5 2 11 3 17 3z m-320-277c-9 0-18 2-25 5-8 3-15 8-21 14-5 6-10 12-13 20-4 8-5 16-5 25 0 9 1 17 5 25 3 8 8 14 13 20 6 6 13 11 21 14 7 3 16 5 25 5 8 0 17-2 25-5 7-3 14-8 20-14 6-6 10-12 14-20 3-8 5-16 5-25 0-9-2-17-5-25-4-8-8-14-14-20-6-6-13-11-20-14-8-3-17-5-25-5z m320-149c-6 0-12 1-17 3-5 2-10 5-13 9-4 4-7 9-10 14-2 5-3 10-3 16 0 6 1 12 3 17 3 5 6 10 10 13 3 4 8 7 13 10 5 2 11 3 17 3 6 0 11-1 16-3 5-3 10-6 14-10 4-3 7-8 9-13 2-5 3-11 3-17 0-6-1-11-3-16-2-5-5-10-9-14-4-4-9-7-14-9-5-2-10-3-16-3z"/>
<glyph glyph-name="game" unicode="&#57470;" d="M384 256l-107 0 0 17c0 34-21 85-94 85-29 0-55 26-55 60l0 94-43 0 0-94c0-60 43-102 103-102 0 0 51-5 51-43l0-17-111 0c-73 0-128-60-128-128 0-68 60-128 128-128 38 0 73 13 98 38l60 0c21-25 55-38 98-38 73 0 128 55 128 128 0 68-60 128-128 128z m0-213c-64 0-77 38-77 38l-102 0c0 0-13-38-77-38-47 0-85 38-85 85 0 47 38 85 85 85l256 0c47 0 85-38 85-85 0-47-38-85-85-85z m-235 128l-42 0 0-22-22 0 0-47 22 0 0-21 42 0 0 21 22 0 0 47-22 0z m192 0l43 0 0-43-43 0z m43-47l43 0 0-43-43 0z"/>
<glyph glyph-name="gift" unicode="&#57471;" d="M512 363l-124 0c16 8 30 16 41 25 12 9 21 19 28 29 9 16 12 30 12 42 0 11-2 19-3 22-6 11-14 19-21 23-8 5-15 7-22 8-26 2-57-15-87-40-31-24-59-55-80-78-20 23-49 54-79 78-30 25-62 42-88 40-7-1-14-3-22-8-7-4-15-12-21-23l-1-3c0-1-3-9-2-20 0-11 3-25 13-41 6-10 15-20 27-29 11-9 25-17 41-25l-124 0 0-149 43 0 0-214 426 0 0 214 43 0z m-299-107l0 65 86 0 0-65z m86-42l0-171-86 0 0 171z m118 255c0 0 1 0 1 0 0 0 1 0 1 0 1 0 2 0 3-1 2 0 3-1 4-3 0 0 1-3 1-8-1-5-3-11-8-19-5-7-15-17-33-28-18-11-45-21-85-30 22 24 45 47 65 63 21 16 39 26 51 26z m-324-31c-4 6-6 12-7 16-1 5-1 8 0 10 1 2 3 4 4 4 1 1 2 1 3 1 11 2 29-8 50-25 21-16 46-39 68-64-39 9-67 19-85 30-18 11-28 21-33 28z m-50-117l127 0 0-65-127 0z m42-107l85 0 0-171-85 0z m342-171l-86 0 0 171 86 0z m42 213l-128 0 0 65 128 0z"/>
<glyph glyph-name="gift-card" unicode="&#57472;" d="M269 342c33 8 60 19 82 31 21 13 37 28 48 44 9 16 12 30 12 42 0 11-2 19-3 22-6 11-13 19-21 24-7 4-15 6-22 7-30 3-68-23-103-54-35-31-66-68-81-87-16 19-40 46-65 67-26 21-53 36-76 35-8-1-15-4-21-9-7-5-12-12-17-21 0-2-2-8-2-17 0-10 3-22 11-35 6-10 15-19 26-27 10-8 24-16 39-22l-71 0 0-342 507 0 0 342z m90 127c1 0 1 0 1 0 1 0 1 0 1 0 1 0 2 0 4-1 1 0 2-1 4-3 0 0 0-3 0-8-1-5-2-11-7-19-5-7-15-17-33-28-19-11-45-21-85-30 22 24 45 47 65 63 21 16 39 26 50 26z m-311-57c-3 4-5 8-5 11-1 2-1 4-2 4 0 0 0 0 0 0 0 0 0 0 0 0 1 1 2 2 2 2 1 1 1 1 2 1 6 0 18-6 32-16 15-11 31-26 47-43-25 6-42 14-54 21-12 8-19 15-22 20z m422-113l0-43-423 0 0 43z m-423-256l0 171 423 0 0-171z m254 43l126 0 0 42-126 0z"/>
<glyph glyph-name="globe" unicode="&#57473;" d="M226 171c73 0 128 55 128 128 0 72-55 128-128 128-72 0-128-56-128-128 0-73 56-128 128-128z m0 213c47 0 85-38 85-85 0-47-38-86-85-86-47 0-85 39-85 86 0 47 38 85 85 85z m209-81c0 115-94 209-209 209l0-43c90 0 167-72 167-166 0-90-73-166-167-166-43 0-85 17-119 46l-30-29c34-35 77-52 124-60l0-51-47 0 0-43 132 0 0 43-43 0 0 55c107 9 192 94 192 205z"/>
<glyph glyph-name="golf" unicode="&#57474;" d="M256 213l0 77 196 103-239 119 0-303c-111-4-213-38-213-102 0-69 128-107 256-107 128 0 256 38 256 107 0 68-128 106-256 106z m0 231l102-51-102-52z m0-401c-128 0-213 38-213 64 0 21 68 55 170 64l0-43-21 0c-13 0-21-9-21-21 0-13 8-22 21-22l85 0c13 0 22 9 22 22 0 12-9 21-22 21l-21 0 0 43c128 0 213-39 213-64 0-26-85-64-213-64z"/>
<glyph glyph-name="gps-off" unicode="&#57475;" d="M467 277c-2 25-9 49-20 71-10 22-24 41-41 58-17 17-36 31-58 41-22 11-45 18-71 20l0 45-42 0 0-45c-8 0-15-2-22-3-7-1-14-3-20-5l24-37c6 1 12 3 19 3 6 1 13 2 20 2 23 0 46-5 66-14 21-8 39-21 55-36 15-16 28-34 36-55 9-20 14-43 14-66 0-19-4-38-9-55-6-18-15-34-26-48l24-37c14 16 26 35 34 55 9 20 15 41 17 64l45 0 0 42z m-100-85c5 9 9 19 12 30 3 11 5 22 5 34 0 18-4 35-10 50-7 15-16 29-28 40-11 12-25 21-40 28-15 6-32 10-50 10-2 0-5 0-7 0-2 0-5-1-7-1l28-43c9-1 17-4 25-8 8-4 15-10 21-16 8-8 14-17 19-27 4-10 6-21 6-33 0-4 0-7 0-11-1-3-2-7-3-10l14-22z m-5-70l-12 18-12 18-23 37-91 140-12 18-12 18-12 18-11 18-12 18-11 17-16 24-16 24 0 0 0 1-35-24 32-49c-3-2-5-4-7-6-2-2-4-4-6-6-17-17-31-36-41-58-11-22-18-46-20-71l-45 0 0-42 45 0c2-26 9-49 20-71 10-22 24-41 41-58 17-17 36-31 58-41 22-11 45-18 71-20l0-45 42 0 0 45c13 1 25 3 37 7 12 3 23 7 34 12l24-37 36 23-24 37-11 18z m-173 187l44-68 44-67c-3-1-7-2-10-3-4 0-7 0-11 0-12 0-23 2-33 6-10 5-19 11-27 19-8 8-14 17-19 27-4 10-6 21-6 33 0 10 1 20 5 29 3 8 7 17 13 24z m67-224c-23 0-46 5-66 14-21 8-39 21-55 36-15 16-28 34-36 54-9 21-14 43-14 67 0 23 5 46 14 66 8 21 21 39 36 55 1 1 2 2 3 3 2 1 3 2 4 2l23-36c-11-11-20-25-27-40-6-16-10-32-10-50 0-18 4-35 10-50 7-15 16-29 28-40 11-12 25-21 40-28 15-6 32-10 50-10 8 0 16 1 23 2 8 2 15 4 22 7l12-19 12-18c-11-5-22-8-33-11-12-2-24-4-36-4z"/>
<glyph glyph-name="gps-on" unicode="&#57476;" d="M512 277l-45 0c-5 50-27 95-61 129-34 34-78 56-129 61l0 45-42 0 0-45c-51-5-95-27-129-61-34-34-56-79-61-129l-45 0 0-42 45 0c5-51 27-96 61-129 34-34 78-56 129-61l0-45 42 0 0 45c51 5 95 27 129 61 34 33 56 78 61 129l45 0z m-256-192c-47 0-90 19-121 50-31 31-50 74-50 121 0 47 19 90 50 121 31 31 74 50 121 50 47 0 90-19 121-50 31-31 50-74 50-121 0-47-19-90-50-121-31-31-74-50-121-50z m0 299c-35 0-67-14-90-38-24-23-38-55-38-90 0-35 14-67 38-90 23-24 55-38 90-38 35 0 67 14 90 38 24 23 38 55 38 90 0 35-14 67-38 90-23 24-55 38-90 38z m0-213c-24 0-45 9-60 25-16 15-25 36-25 60 0 24 9 45 25 60 15 16 36 25 60 25 24 0 45-9 60-25 16-15 25-36 25-60 0-24-9-45-25-60-15-16-36-25-60-25z"/>
<glyph glyph-name="graph-decreasing" unicode="&#57477;" d="M512 124l-43-124-132 51 17 39 56-22-116 282-123-128-171 264 38 26 137-218 136 137 141-346 17 56z"/>
<glyph glyph-name="graph-increasing" unicode="&#57478;" d="M512 388l-43 124-132-51 17-39 56 22-116-282-123 128-171-264 38-26 137 218 136-137 141 346 17-56z"/>
<glyph glyph-name="headset" unicode="&#57479;" d="M256 512c-141 0-256-115-256-256l0-179c0-43 34-77 77-77 42 0 77 34 77 77l0 51c0 43-35 77-77 77-9 0-17 0-26-4l0 55c0 115 94 209 205 209 111 0 205-94 205-209l0-55c-9 4-13 4-22 4l-8 0c-43 0-77-34-77-77l0-55c0-39 34-73 73-73l8 0c39 0 73 34 73 73l0 183c4 141-111 256-252 256z m-179-358c13 0 25-13 25-26l0-51c0-13-12-26-25-26-13 0-26 13-26 26l0 51c0 13 13 26 26 26z m384-81c0-13-9-22-22-22l-8 0c-13 0-21 9-21 22l0 55c0 13 8 21 21 21l8 0c13 0 22-8 22-21z"/>
<glyph glyph-name="health" unicode="&#57480;" d="M512 355c0 16-5 33-14 51-10 18-23 36-40 53-25 25-53 42-79 49-25 7-48 4-62-10l-31-32-32-31 1 0 0-1c-9-11-12-26-10-43 2-17 9-36 22-55l-45-45-46-45c-20 13-41 20-59 22-18 1-33-3-44-14l-58-59c0 0 0 0 0 0-1 0-1 0-1 0l0 0-4-4 1-1 0 0c0-1 0-1-1-1 0-1 0-1 0-2-3-4-6-8-7-14-2-5-3-10-3-16 0-16 5-33 14-51 10-18 23-36 40-52 16-17 34-30 52-40 18-9 35-14 51-14 0 0 0 0 0 0 0 0 0 0 0 0 6 0 11 1 17 3 5 1 9 4 14 7 1 0 2 1 3 2 2 0 3 1 4 2l59 59c0 0 0 0 0 0 0 0 0 0 0 0 10 11 15 26 13 44-1 18-9 39-22 59l46 46 45 45c12-7 23-13 34-17 11-4 21-6 31-6 7 0 15 1 21 4 6 2 12 6 17 11l0 0 0 0 0 0 58 58c5 5 9 10 11 17 3 6 4 13 4 21z m-202-37l11 11 11 11 4-4 4-4-22-22-100-100c0 1-1 1-1 2-1 1-2 1-2 2-1 1-2 1-2 2-1 1-2 2-3 3z m-153-275c-8 0-19 3-32 10-13 7-27 17-41 31-14 14-24 28-31 41-7 13-10 24-10 32 0 2 0 3 1 5 0 1 0 2 1 3l0 0c0 0 0 0 0 0 0 0 0 0 0 0 1 0 2 1 3 1 1 0 2 1 4 1 0 0 0 0 0 0 0 0 1 0 1 0 8-1 19-4 32-10 12-7 27-17 41-31 19-20 31-39 36-53 6-15 6-25 3-28-1-1-2-1-3-1-2 0-4 0-5-1z m66 60l-9-9-10-10c0 1-1 2-1 4-1 1-1 2-2 3 0 1-1 3-1 4-1 1-2 3-2 4-1 2-2 4-3 6-1 1-2 3-3 5-1 1-2 3-3 4 0 1-1 3-2 4-1 2-3 4-4 6-2 2-3 4-5 6-1 2-1 3-2 4-1 1-2 2-3 3-2 4-5 7-8 10-3 3-6 6-9 9-3 4-7 8-11 11-4 3-8 6-12 9-1 1-2 2-3 3-1 0-2 1-3 2-4 2-7 5-11 7-3 2-7 4-10 6-1 0-1 1-2 1 0 0-1 0-1 1-3 1-7 3-10 4-3 2-6 3-9 4l9 10 10 9c3 3 10 3 21 0 12-3 26-10 41-22 3-2 7-5 10-8 3-3 6-6 9-9 3-3 6-6 9-9 2-3 5-6 7-10 13-16 20-31 23-42 3-10 2-18 0-20z m144 195l6 6 1 0c1 2 2 3 2 4 1 1 2 3 3 4 0 1 1 2 1 3 1 0 2 1 2 2 1 2 2 5 2 7 1 3 1 6 1 8 0 5-1 10-3 15-2 5-5 9-8 13l-7 7-7 7c-4 3-8 6-12 8-5 2-10 3-16 3-5 0-10-1-15-3-5-2-9-5-13-8l-3-4-3-3c-6 11-9 21-11 28-1 7 0 12 2 14 1 1 2 1 3 1 1 1 3 1 5 1 0 0 0 0 0 0 0 0 0 0 0 0 8 0 19-3 32-10 13-7 27-17 41-31 14-14 24-28 31-41 7-13 10-24 10-32 0-2 0-3-1-5 0-1 0-2-1-3-2-2-7-2-14-1-8 1-17 4-28 10z m100 49l-10-9-9-10c-5 12-11 24-19 37-8 12-17 24-29 35-11 12-23 21-35 29-13 8-25 15-37 19l19 19c3 3 14 3 28-2 15-6 34-17 53-37 14-14 24-28 31-41 7-13 10-24 10-32 0-2 0-3-1-5 0-1 0-2-1-3z"/>
<glyph glyph-name="heart" unicode="&#57481;" d="M260 51c-26 1-71 30-113 63-43 34-84 71-103 89-14 14-25 31-33 49-7 18-11 38-11 58 0 20 4 40 11 58 8 18 19 35 33 49 28 28 67 42 106 43 38 0 77-14 106-42 29 29 68 43 106 43 38 0 76-15 106-44 14-15 25-31 33-49 7-19 11-38 11-58 0-20-4-40-11-58-8-18-19-34-33-49-25-23-66-60-106-92-41-32-81-59-102-60z m-109 367c-15 0-29-3-42-8-13-6-24-13-35-24-10-10-18-22-23-35-5-13-8-27-8-41 0-15 3-29 8-42 5-12 13-24 23-34 36-34 76-68 111-95 35-26 63-45 75-45 9 1 36 20 70 46 33 27 73 61 108 94 10 10 18 22 23 35 5 13 8 26 8 41 0 14-3 28-8 41-5 13-13 25-24 35-21 21-48 32-76 32-28 0-56-11-77-32l-14-14-15-14-14 14-14 14c-10 11-22 19-35 24-13 5-27 8-41 8z"/>
<glyph glyph-name="high-priority" unicode="&#57482;" d="M63 347l41 41 42 42 0-430 43 0 0 430 43-43 43-43 30 30-69 69-69 69-67-67-68-68 15-15z m363-306c15 0 28 6 38 16 10 10 16 23 16 38 0 15-6 28-16 38-10 10-23 16-38 16-15 0-29-6-39-16-9-10-15-23-15-38 0-15 6-28 15-38 10-10 24-16 39-16z m11 54c0-3-1-6-3-8-2-2-5-3-8-3-3 0-6 1-8 3-2 2-4 5-4 8 0 6 6 9 12 9 5 0 11-3 11-9z m-11 109c15 0 28 6 38 15 10 10 16 24 16 39 0 15-6 28-16 38-10 10-23 16-38 16-15 0-29-6-39-16-9-10-15-23-15-38 0-15 6-29 15-39 10-9 24-15 39-15z m11 54c0-3-1-6-3-8-2-2-5-4-8-4-3 0-6 2-8 4-2 2-4 5-4 8 0 6 6 9 12 9 5 0 11-3 11-9z m-11 108c15 0 28 6 38 16 10 10 16 23 16 38 0 15-6 29-16 39-10 9-23 15-38 15-15 0-29-6-39-15-9-10-15-24-15-39 0-15 6-28 15-38 10-10 24-16 39-16z m11 54c0-3-1-6-3-8-2-2-5-3-8-3-3 0-6 1-8 3-2 2-4 5-4 8 0 7 6 10 12 10 5 0 11-3 11-10z"/>
</font>
</defs>
</svg>
